↑↓Torrent.by
Поиск
Логин: Регистрация
Пароль: Восстановить пароль
Загрузка...

Детектив Ди: Четыре Небесных царя / Di Renjie: zhi si da tian wang (2018) BDRip 1080p | HDrezka Studio

Скачать detektiv-di-chetyre-nebesnyh-carya-renjie-zhi-si-da-tian-wang-2018-bdrip-1080p-hdrezka-studio.torrent
U Магнитная ссылка Размер: 14.23 GB Раздают: 93 Качают: 198 Добавлен: 2019-05-13 19:24:41
Детектив Ди: Четыре Небесных царя / Di Renjie: zhi si da tian wang (2018) BDRip 1080p | HDrezka Studio

Название: Детектив Ди: Четыре Небесных царя
Оригинальное название: Di Renjie: zhi si da tian wang / Detective Dee: The Four Heavenly Kings
Год выпуска: 2018
Жанр:  Фэнтези, боевик, детектив, приключения
Режиссер: Харк Цуй
В ролях: Марк Чао, Карина Лау, Уилльям Фэн, Кенни Лин, Сандра Ма, Этан Жуань

О фильме: Третья часть саги о детективе Ди повествует о его новых невероятных приключениях. Получив в дар от императора могущественный артефакт, способный укрощать драконов, детектив не только обрел новые способности, но и попал под подозрение императрицы Ву — та забеспокоилась, что он может попытаться захватить власть, и пожелала любой ценой вернуть артефакт обратно. Теперь детективу Ди предстоит защитить свое имя и раскрыть таинственное дело, в котором тесно переплетаются дворцовые интриги и сверхъестественные события, охватившие город.

Выпущено: Китай, Гонконг, Huayi Brothers
Продолжительность: 02:12:04
Перевод: Профессиональный (многоголосый, закадровый) | HDrezka Studio

Файл
Качество: BDRip 1080p
Контейнер: MKV
Видео: MPEG-4 AVC, 13.7 Мбит/с, 1920x1040, 23.976 fps
Аудио 1: Russian: AC3, 2 ch, 192 Кбит/с - HDrezka Studio
Аудио 2: Chinese: DTS, 6 ch, 1509 Кбит/с - Original
Субтитры: Русские, английские


[+] MediaInfo
General
Unique ID                                : 189498654137178758584334220158630366442 (0x8E901CFD73FDDB89927B27B34BD00CEA)
Complete name                            : G:Detective.Dee.The.Four.Heavenly.Kings.2018.BDRip.1080p.mkv
Format                                   : Matroska
Format version                           : Version 4 / Version 2
File size                                : 14.2 GiB
Duration                                 : 2 h 12 min
Overall bit rate                         : 15.4 Mb/s
Encoded date                             : UTC 2019-05-13 08:43:43
Writing application                      : mkvmerge v20.0.0 ('I Am The Sun') 64-bit
Writing library                          : libebml v1.3.5 + libmatroska v1.4.8

Video
ID                                       : 1
Format                                   : AVC
Format/Info                              : Advanced Video Codec
Format profile                           : High@L4.1
Format settings                          : CABAC / 4 Ref Frames
Format settings, CABAC                   : Yes
Format settings, RefFrames               : 4 frames
Codec ID                                 : V_MPEG4/ISO/AVC
Duration                                 : 2 h 12 min
Bit rate                                 : 13.7 Mb/s
Width                                    : 1 920 pixels
Height                                   : 1 040 pixels
Display aspect ratio                     : 1.85:1
Frame rate mode                          : Constant
Frame rate                               : 23.976 (24000/1001) FPS
Color space                              : YUV
Chroma subsampling                       : 4:2:0
Bit depth                                : 8 bits
Scan type                                : Progressive
Bits/(Pixel*Frame)                       : 0.287
Stream size                              : 12.7 GiB (89%)
Writing library                          : x264 core 142 r2431+42 c69a006 tMod [8-bit@4:2:0 X86_64]
Encoding settings                        : cabac=1 / ref=4 / deblock=1:-3:-3 / analyse=0x3:0x113 / me=umh / subme=10 / psy=1 / fade_compensate=0.00 / psy_rd=1.00:0.05 / mixed_ref=1 / me_range=48 / chroma_me=1 / trellis=2 / 8x8dct=1 / cqm=0 / deadzone=21,11 / fast_pskip=0 / chroma_qp_offset=-2 / threads=48 / lookahead_threads=8 / sliced_threads=0 / nr=0 / decimate=1 / interlaced=0 / bluray_compat=0 / constrained_intra=0 / fgo=0 / bframes=8 / b_pyramid=2 / b_adapt=2 / b_bias=0 / direct=3 / weightb=1 / open_gop=0 / weightp=2 / keyint=250 / keyint_min=23 / scenecut=40 / intra_refresh=0 / rc_lookahead=40 / rc=crf / mbtree=0 / crf=19.0000 / qcomp=0.60 / qpmin=0:0:0 / qpmax=69:69:69 / qpstep=4 / vbv_maxrate=40000 / vbv_bufsize=30000 / crf_max=0.0 / nal_hrd=none / filler=0 / ip_ratio=1.40 / pb_ratio=1.30 / aq=3:0.80 / aq-sensitivity=10.00 / aq-factor=1.00:1.00:1.00 / aq2=0 / aq3=0
Language                                 : Chinese
Default                                  : Yes
Forced                                   : No
Color range                              : Limited
Matrix coefficients                      : BT.709

Audio #1
ID                                       : 2
Format                                   : AC-3
Format/Info                              : Audio Coding 3
Codec ID                                 : A_AC3
Duration                                 : 2 h 12 min
Bit rate mode                            : Constant
Bit rate                                 : 192 kb/s
Channel(s)                               : 2 channels
Channel positions                        : Front: L R
Sampling rate                            : 48.0 kHz
Frame rate                               : 31.250 FPS (1536 SPF)
Bit depth                                : 16 bits
Compression mode                         : Lossy
Stream size                              : 181 MiB (1%)
Title                                    : MVO, HDrezka Studio
Language                                 : Russian
Service kind                             : Complete Main
Default                                  : Yes
Forced                                   : No

Audio #2
ID                                       : 3
Format                                   : DTS
Format/Info                              : Digital Theater Systems
Codec ID                                 : A_DTS
Duration                                 : 2 h 12 min
Bit rate mode                            : Constant
Bit rate                                 : 1 509 kb/s
Channel(s)                               : 6 channels
Channel positions                        : Front: L C R, Side: L R, LFE
Sampling rate                            : 48.0 kHz
Frame rate                               : 93.750 FPS (512 SPF)
Bit depth                                : 24 bits
Compression mode                         : Lossy
Stream size                              : 1.39 GiB (10%)
Language                                 : Chinese
Default                                  : No
Forced                                   : No

Text #1
ID                                       : 4
Format                                   : UTF-8
Codec ID                                 : S_TEXT/UTF8
Codec ID/Info                            : UTF-8 Plain Text
Duration                                 : 2 h 7 min
Bit rate                                 : 83 b/s
Count of elements                        : 1422
Stream size                              : 77.9 KiB (0%)
Language                                 : Russian
Default                                  : No
Forced                                   : No

Text #2
ID                                       : 5
Format                                   : UTF-8
Codec ID                                 : S_TEXT/UTF8
Codec ID/Info                            : UTF-8 Plain Text
Duration                                 : 2 h 7 min
Bit rate                                 : 46 b/s
Count of elements                        : 1421
Stream size                              : 43.0 KiB (0%)
Language                                 : English
Default                                  : No
Forced                                   : No

Menu
00:00:00.000                             : en:00:00:00.000
00:09:37.535                             : en:00:09:37.535
00:20:46.912                             : en:00:20:46.912
00:31:00.317                             : en:00:31:00.317
00:40:30.970                             : en:00:40:30.970
00:47:54.747                             : en:00:47:54.747
01:00:14.486                             : en:01:00:14.486
01:08:47.332                             : en:01:08:47.332
01:22:26.567                             : en:01:22:26.567
01:33:52.669                             : en:01:33:52.669
01:42:48.871                             : en:01:42:48.871
01:59:52.977                             : en:01:59:52.977



Скриншоты:
[+] Всего файлов в раздаче - 1:
Detective.Dee.The.Four.Heavenly.Kings.2018.BDRip.1080p.mkv14.23 GB

Показать еще раздачи по запросу детектив:
2019-05-14 U Детектив Ди: Четыре Небесных царя / Di Renjie: zhi si da tian wang (2018) BDRip 720p | HDRezka Studio 6.40 GB ↑ 59 ↓ 32
2019-05-14 U Детектив Ди: Четыре Небесных царя / Di Renjie: zhi si da tian wang (2018) BDRip-AVC | HDRezka Studio 2.37 GB ↑ 93 ↓ 57
2019-02-26 U Настоящий детектив / True Detective [S03] (2019) WEB-DL 720p от qqss44 & MegaPeer | Amedia 13.21 GB ↑ 104 ↓ 318
2019-02-25 U Настоящий детектив / True Detective [S03] (2019) WEB-DLRip | Amedia 6.15 GB ↑ 48 ↓ 97
2019-02-25 U Настоящий детектив / True Detective [S03] (2019) WEB-DL 1080p | Amedia 29.86 GB ↑ 174 ↓ 321
2019-02-20 U Настоящий детектив / True Detective [03х01-07 из 08] (2019) WEB-DLRip-AVC | Amedia 5.11 GB ↑ 29 ↓ 75
2019-02-18 U Настоящий детектив / True Detective [03х01-07 из 08] (2019) WEB-DL 720p от qqss44 & MegaPeer | Amedia 11.21 GB ↑ 88 ↓ 712

Отзывы
Зарегистрируйтесь чтобы добавить комментарий.
Обратная связь
Copyleft ©