↑↓Torrent.by
Поиск
Логин: Регистрация
Пароль: Восстановить пароль
Загрузка...

Детектив Ди: Четыре Небесных царя / Di Renjie: zhi si da tian wang (2018) BDRip-AVC | HDRezka Studio

Скачать detektiv-di-chetyre-nebesnyh-carya-renjie-zhi-si-da-tian-wang-2018-bdrip-avc-hdrezka-studio.torrent
U Магнитная ссылка Размер: 2.37 GB Раздают: 97 Качают: 57 Добавлен: 2019-05-14 08:04:30
Детектив Ди: Четыре Небесных царя / Di Renjie: zhi si da tian wang (2018) BDRip-AVC | HDRezka Studio

Название: Детектив Ди: Четыре Небесных царя
Оригинальное название: Di Renjie: zhi si da tian wang
Год выхода: 2018
Жанр: Фэнтези, боевик, детектив, приключения
Режиссер: Харк Цуй
В ролях: Марк Чао, Карина Лау, Уилльям Фэн, Кенни Лин, Сандра Ма, Этан Жуань

О фильме:
За заслуги перед отечеством император дарует детективу Ди могущественный артефакт — Жезл Укрощения Драконов. Но императрица недовольна этим жестом, она считает, что таким образом император поставил под угрозу их власть, и Жезл надо немедленно вернуть. Миссия поручается давнему товарищу Ди, а в помощь ему императрица приставляет боевых магов. Но детектив Ди предвидел, что за артефактом начнется охота, и предпринял соответствующие меры.

Страна: Китай, Гонконг
Студия: Huayi Brothers
Продолжительность: 02:11:47
Перевод: Профессиональный многоголосый | HDRezka Studio

Файл
Кодек: AVC
Качество: BDRip-AVC
Видео: MPEG-4 AVC, 2000 Kбит/с, 1024x552, 24.000 кадр/с
Аудио #1: Русский (АС3, 2ch, 192 Кбит/с, 48.0 KHz) Профессиональный (многоголосый, закадровый) HDRezka Studio
Аудио #2: Китайский (АС3, 6ch, 384 Кбит/с, 48.0 KHz)
Субтитры: Русские, английские(*srt)
Трейлер




[+] MediaInfo

General
Unique ID                      : 196222101340576519544390933294998516086 (0x939F0087CE6C5BBBAABC69925E227176)
Complete name                  : Detective.Dee.The.Four.Heavenly.Kings.2018.BDRip.mkv
Format                         : Matroska
Format version                 : Version 4 / Version 2
File size                      : 2.37 GiB
Duration                       : 2 h 11 min
Overall bit rate               : 2 578 kb/s
Encoded date                   : UTC 2019-05-13 16:20:08
Writing application            : mkvmerge v7.1.0 ('Good Love') 64bit built on Jul 27 2014 13:06:55
Writing library                : libebml v1.3.0 + libmatroska v1.4.1

Video
ID                             : 1
Format                         : AVC
Format/Info                    : Advanced Video Codec
Format profile                 : High@L4.1
Format settings, CABAC         : Yes
Format settings, RefFrames     : 9 frames
Codec ID                       : V_MPEG4/ISO/AVC
Duration                       : 2 h 11 min
Bit rate                       : 2 000 kb/s
Width                          : 1 024 pixels
Height                         : 552 pixels
Display aspect ratio           : 1.85:1
Frame rate mode                : Constant
Frame rate                     : 24.000 FPS
Color space                    : YUV
Chroma subsampling             : 4:2:0
Bit depth                      : 8 bits
Scan type                      : Progressive
Bits/(Pixel*Frame)             : 0.147
Stream size                    : 1.84 GiB (78%)
Writing library                : x264 core 148 r2638 7599210
Encoding settings              : cabac=1 / ref=9 / deblock=1:-3:-3 / analyse=0x3:0x133 / me=umh / subme=11 / psy=1 / psy_rd=1.00:0.20 / mixed_ref=1 / me_range=48 / chroma_me=1 / trellis=2 / 8x8dct=1 / cqm=0 / deadzone=21,11 / fast_pskip=1 / chroma_qp_offset=-3 / threads=6 / lookahead_threads=1 / sliced_threads=0 / nr=0 / decimate=1 / interlaced=0 / bluray_compat=0 / constrained_intra=0 / bframes=10 / b_pyramid=2 / b_adapt=2 / b_bias=0 / direct=3 / weightb=1 / open_gop=0 / weightp=2 / keyint=250 / keyint_min=23 / scenecut=40 / intra_refresh=0 / rc_lookahead=60 / rc=2pass / mbtree=1 / bitrate=2000 / ratetol=1.0 / qcomp=0.60 / qpmin=0 / qpmax=69 / qpstep=4 / cplxblur=20.0 / qblur=0.5 / ip_ratio=1.40 / aq=1:1.00
Language                       : English
Default                        : Yes
Forced                         : No

Audio #1
ID                             : 2
Format                         : AC-3
Format/Info                    : Audio Coding 3
Format settings, Endianness    : Big
Codec ID                       : A_AC3
Duration                       : 2 h 11 min
Bit rate mode                  : Constant
Bit rate                       : 192 kb/s
Channel(s)                     : 2 channels
Channel positions              : Front: L R
Sampling rate                  : 48.0 kHz
Frame rate                     : 31.250 FPS (1536 SPF)
Bit depth                      : 16 bits
Compression mode               : Lossy
Stream size                    : 181 MiB (7%)
Title                          : MVO | HDRezka Studio
Language                       : Russian
Service kind                   : Complete Main
Default                        : Yes
Forced                         : No

Audio #2
ID                             : 3
Format                         : AC-3
Format/Info                    : Audio Coding 3
Format settings, Endianness    : Big
Codec ID                       : A_AC3
Duration                       : 2 h 11 min
Bit rate mode                  : Constant
Bit rate                       : 384 kb/s
Channel(s)                     : 6 channels
Channel positions              : Front: L C R, Side: L R, LFE
Sampling rate                  : 48.0 kHz
Frame rate                     : 31.250 FPS (1536 SPF)
Bit depth                      : 16 bits
Compression mode               : Lossy
Stream size                    : 362 MiB (15%)
Language                       : Chinese
Service kind                   : Complete Main
Default                        : No
Forced                         : No

Text #1
ID                             : 4
Format                         : UTF-8
Codec ID                       : S_TEXT/UTF8
Codec ID/Info                  : UTF-8 Plain Text
Duration                       : 2 h 7 min
Bit rate                       : 83 b/s
Count of elements              : 1422
Stream size                    : 77.9 KiB (0%)
Language                       : Russian
Default                        : No
Forced                         : No

Text #2
ID                             : 5
Format                         : UTF-8
Codec ID                       : S_TEXT/UTF8
Codec ID/Info                  : UTF-8 Plain Text
Duration                       : 2 h 7 min
Bit rate                       : 44 b/s
Count of elements              : 1629
Stream size                    : 41.7 KiB (0%)
Language                       : English
Default                        : No
Forced                         : No

Menu
00:00:00.000                   : en:00:00:00.000
00:09:40.750                   : en:00:09:40.750
00:17:55.250                   : en:00:17:55.250
00:26:05.042                   : en:00:26:05.042
00:37:59.583                   : en:00:37:59.583
00:46:15.917                   : en:00:46:15.917
01:00:41.708                   : en:01:00:41.708
01:08:50.458                   : en:01:08:50.458
01:17:11.417                   : en:01:17:11.417
01:25:24.458                   : en:01:25:24.458
01:35:17.125                   : en:01:35:17.125
01:43:23.500                   : en:01:43:23.500
01:53:10.167                   : en:01:53:10.167
02:03:56.583                   : en:02:03:56.583



Скриншоты:
[+] Всего файлов в раздаче - 1:
Detective.Dee.The.Four.Heavenly.Kings.2018.BDRip.mkv2.37 GB

Показать еще раздачи по запросу детектив:
Вчера U Частный детектив Бикслер Хай / Bixler High Private Eye (2019) WEB-DLRip от Portablius | D 745.43 MB ↑ 26 ↓ 2
2019-05-20 U Частный детектив Бикслер Хай / Bixler High Private Eye (2019) WEB-DLRip от Deadmauvlad | D 1.28 GB ↑ 24 ↓ 5
2019-05-19 U Частный детектив Бикслер Хай / Bixler High Private Eye (2019) WEB-DL 1080p | D 2.74 GB ↑ 155 ↓ 63
2019-05-14 U Детектив Ди: Четыре Небесных царя / Di Renjie: zhi si da tian wang (2018) BDRip 720p | HDRezka Studio 6.40 GB ↑ 59 ↓ 32
2019-05-13 U Детектив Ди: Четыре Небесных царя / Di Renjie: zhi si da tian wang (2018) BDRip 1080p | HDrezka Studio 14.23 GB ↑ 93 ↓ 198
2019-02-26 U Настоящий детектив / True Detective [S03] (2019) WEB-DL 720p от qqss44 & MegaPeer | Amedia 13.21 GB ↑ 104 ↓ 318
2019-02-25 U Настоящий детектив / True Detective [S03] (2019) WEB-DLRip | Amedia 6.15 GB ↑ 48 ↓ 97

Отзывы
Зарегистрируйтесь чтобы добавить комментарий.
Обратная связь
Copyleft ©