↑↓Torrent.by
Поиск
Логин: Регистрация
Пароль: Восстановить пароль
Загрузка...

Игра Престолов / Game Of Thrones [08х01-05 из 06] (2019) WEB-DLRip 1080p | HDrezka Studio

Скачать igra-prestolov-game-of-thrones-08h01-05-iz-06-2019-web-dlrip-1080p-hdrezka-studio.torrent
U Магнитная ссылка Размер: 16.66 GB Раздают: 48 Качают: 297 Добавлен: 2019-05-14 08:04:59
Игра Престолов / Game Of Thrones [08х01-05 из 06] (2019) WEB-DLRip 1080p | HDrezka Studio

Название: Игра Престолов
Оригинальное название: Game Of Thrones
Год выхода: 2019
Жанр: фэнтези, драма, мелодрама, приключения
Режиссер: Дэвид Наттер, Алан Тейлор, Алекс Грейвз
В ролях: Питер Динклэйдж, Лина Хиди, Эмилия Кларк, Кит Харингтон, Софи Тернер, Мэйси Уильямс, Николай Костер-Вальдау, Иэн Глен, Элфи Оуэн-Аллен, Джон Брэдли и другие

О фильме:
К концу подходит время благоденствия, и лето, длившееся несколько десятилетий, угасает. Вокруг средоточия власти Семи королевств, Железного трона, зреет заговор, и в это непростое время король решает искать поддержки у друга юности Эддарда Старка (Шон Бин). В мире, где все — от короля до наемника — рвутся к власти, плетут интриги и готовы вонзить нож в спину, есть место и благородству, состраданию и любви. Между тем, никто не замечает пробуждение тьмы из легенд далеко на Севере — и лишь Стена защищает живых к югу от нее. Между древней ледяной Стеной и пламенем навсегда ушедших из мира драконов разворачивается «Игра престолов» — долгожданная экранизация культовой саги Джорджа Р. Р. Мартина «Песнь льда и пламени».

Страна: США, Великобритания
Студия: HBO
Продолжительность: ~01:05:00
Перевод: профессиональный, многоголосый закадровый | HDrezka Studio
Реклама: Присутствует (заставка студии вначале)

Файл
Кодек: AVC
Качество: WEB-DLRip 1080p
Видео: 1920x1080, 16:9, 23.976 fps, ~6000 kb/s
Звук: Russian, AC3, 48 kHz, 6 ch, 448 kbps
Субтитры: Russian (Forced, надписи)

Семпл

Релиз от: HDREZKA


[+] О релизе и озвучке
Сериал озвучен голосами актеров, которые озвучивают дубляж от Кравец.



[+] MediaInfo
General
Complete name                            : Game.of.Thrones.S08.WEBRip.1080p.rus.HDREZKA.STUDIOGame.of.Thrones.S08E01.WEBRip.1080p.5.1.rus.HDREZKA.STUDIO.mkv
Format                                   : Matroska
Format version                           : Version 4
File size                                : 2.49 GiB
Duration                                 : 53 min 14 s
Overall bit rate mode                    : Variable
Overall bit rate                         : 6 688 kb/s
Encoded date                             : UTC 2019-04-17 21:08:45
Writing application                      : mkvmerge v28.2.0 ('The Awakening') 64-bit
Writing library                          : libebml v1.3.6 + libmatroska v1.4.9

Video
ID                                       : 1
Format                                   : AVC
Format/Info                              : Advanced Video Codec
Format profile                           : High@L4.1
Format settings                          : CABAC / 1 Ref Frames
Format settings, CABAC                   : Yes
Format settings, RefFrames               : 1 frame
Codec ID                                 : V_MPEG4/ISO/AVC
Duration                                 : 53 min 14 s
Bit rate mode                            : Variable
Bit rate                                 : 6 238 kb/s
Width                                    : 1 920 pixels
Height                                   : 1 080 pixels
Display aspect ratio                     : 16:9
Frame rate mode                          : Constant
Frame rate                               : 23.976 (24000/1001) FPS
Color space                              : YUV
Chroma subsampling                       : 4:2:0
Bit depth                                : 8 bits
Scan type                                : Progressive
Bits/(Pixel*Frame)                       : 0.125
Stream size                              : 2.32 GiB (93%)
Default                                  : Yes
Forced                                   : No

Audio
ID                                       : 2
Format                                   : AC-3
Format/Info                              : Audio Coding 3
Commercial name                          : Dolby Digital
Codec ID                                 : A_AC3
Duration                                 : 53 min 13 s
Bit rate mode                            : Constant
Bit rate                                 : 448 kb/s
Channel(s)                               : 6 channels
Channel layout                           : L R C LFE Ls Rs
Sampling rate                            : 48.0 kHz
Frame rate                               : 31.250 FPS (1536 SPF)
Bit depth                                : 16 bits
Compression mode                         : Lossy
Stream size                              : 171 MiB (7%)
Language                                 : Russian
Service kind                             : Complete Main
Default                                  : Yes
Forced                                   : No

Text
ID                                       : 3
Format                                   : ASS
Codec ID                                 : S_TEXT/ASS
Codec ID/Info                            : Advanced Sub Station Alpha
Duration                                 : 46 s 750 ms
Bit rate                                 : 35 b/s
Count of elements                        : 3
Compression mode                         : Lossless
Stream size                              : 210 Bytes (0%)
Language                                 : Russian
Default                                  : Yes
Forced                                   : No



Скриншоты:
[+] Всего файлов в раздаче - 5:
Game.of.Thrones.S08E01.WEBRip.1080p.rus.5.1.HDREZKA.STUDIO.mkv2.49 GB
Game.of.Thrones.S08E02.WEBRip.1080p.rus.5.1.HDREZKA.STUDIO.mkv2.51 GB
Game.of.Thrones.S08E04.WEBRip.1080p.rus.5.1.HDREZKA.STUDIO.mkv3.42 GB
Game.of.Thrones.S08E03.WEBRip.1080p.rus.5.1.HDREZKA.STUDIO.mkv3.62 GB
Game.of.Thrones.S08E05.WEBRip.1080p.rus.5.1.HDREZKA.STUDIO.mkv4.62 GB

Показать еще раздачи по запросу игра:
Вчера U Игра престолов / Game of Thrones [S08] (2019) WEB-DLRip-AVC от ExKinoRay | Amedia 7.47 GB ↑ 119 ↓ 357
Вчера U Игра престолов / Game of Thrones [S08] (2019) WEB-DL 720p | Amedia 11.52 GB ↑ 404 ↓ 3180
Вчера U Игра престолов / Game of Thrones [S08] (2019) WEB-DL 1080p от Scarabey | Amedia 22.02 GB ↑ 475 ↓ 7810
Вчера U Игра престолов / Game of Thrones [S08] (2019) WEB-DL 1080p | Amedia 23.95 GB ↑ 519 ↓ 6368
Вчера U Игра престолов / Game of Thrones [S08] (2019) WEB-DL 720p от Scarabey | Amedia 9.59 GB ↑ 673 ↓ 7221
Вчера U Игра престолов / Game of Thrones [S08] (2019) WEB-DLRip от qqss44 & MegaPeer | Amedia 5.06 GB ↑ 1068 ↓ 5304
Вчера U Игра [S01-02] (2011-2014) WEBRip-AVC 25.03 GB ↑ 57 ↓ 24

Отзывы
Зарегистрируйтесь чтобы добавить комментарий.
Обратная связь
Copyleft ©