↑↓Torrent.by
Поиск
Логин: Регистрация
Пароль: Восстановить пароль
Загрузка...

Победители [01-02 из 10] (2017) WEBRip от GeneralFilm

Скачать pobediteli-01-02-iz-10-2017-webrip-ot-generalfilm.torrent
U Магнитная ссылка Размер: 1.09 GB Раздают: 47 Качают: 15 Добавлен: 2019-05-14 08:05:06
Победители [01-02 из 10] (2017) WEBRip от GeneralFilm

Оригинальное название: Победители
Год выпуска: 2017
Жанр:  Детектив, драма, история
Выпущено:  Россия, Студия: ПЦ «Космос фильм»
Режиссер: Александр Галин, Ангелина Никонова
В ролях: Никита Панфилов, Никита Ефремов, Евгений Антропов, Юлия Пересильд, Анна Чиповская, Фёдор Лавров, Павел Ващилин, Александр Сетейкин, Алексей Павлов (IV), Валентин Самохин, Тимур Бадалбейли, Татьяна Тимакова, Эрика Булатая, Изабель Эйдлен, Анастасия Попова (II)

О фильме: 1895 год. На всю Россию гремит имя знаменитого столичного адвоката Николая Андронова, не проигравшего пока ни одного судебного процесса. Его друзья Виктор Роскевич и Михаил Заварзин – тоже блестящие адвокаты. Они побеждают в сложнейших уголовных делах, порой не только оправдывая своих подзащитных, но и изобличая истинных преступников прямо в зале суда. В тяжёлых ситуациях друзья-адвокаты всегда приходят на помощь друг другу. Они ещё достаточно молоды (старшему, Николаю Андронову, всего 35 лет). Все трое абсолютно разные, но каждый готов пожертвовать ради друзей очень многим… Их многолетняя дружба, и осознание того, что есть на кого рассчитывать в трудной ситуации – не в последнюю очередь, делает всех троих ПОБЕДИТЕЛЯМИ. И в профессиональной, и в личной жизни.

Качество: WEBRip
Видео: XviD build 73, 720x400 (16:9), 25.000 fps, ~ 1450 Kbps (~ 0.200 bit/pixel)
Аудио: 48.0 kHz, AC3, 2/0 ch, 192 kbps
Продолжительность: 2 x ~ 00:48:00
Перевод: Не требуется [Русский]

Релиз:


[+] MediaInfo
General
Complete name               : D:RazdachiPobediteli.2017.WEBRip.GeneralFilmPobediteli.e01.avi
Format                      : AVI
Format/Info                 : Audio Video Interleave
File size                   : 557 MiB
Duration                    : 47 min 36 s
Overall bit rate            : 1 636 kb/s
Writing application         : VirtualDubMod 1.5.10.3 | www.virtualdub-fr.org || (build 2550/release)
Writing library             : VirtualDubMod build 2550/release

Video
ID                          : 0
Format                      : MPEG-4 Visual
Format profile              : Advanced Simple@L5
Format settings             : BVOP1 / Custom Matrix
Format settings, BVOP       : 1
Format settings, QPel       : No
Format settings, GMC        : No warppoints
Format settings, Matrix     : Custom
Codec ID                    : XVID
Codec ID/Hint               : XviD
Duration                    : 47 min 36 s
Bit rate                    : 1 434 kb/s
Width                       : 720 pixels
Height                      : 400 pixels
Display aspect ratio        : 16:9
Frame rate                  : 25.000 FPS
Color space                 : YUV
Chroma subsampling          : 4:2:0
Bit depth                   : 8 bits
Scan type                   : Progressive
Compression mode            : Lossy
Bits/(Pixel*Frame)          : 0.199
Stream size                 : 488 MiB (88%)
Writing library             : XviD 73

Audio
ID                          : 1
Format                      : AC-3
Format/Info                 : Audio Coding 3
Commercial name             : Dolby Digital
Codec ID                    : 2000
Duration                    : 47 min 36 s
Bit rate mode               : Constant
Bit rate                    : 192 kb/s
Channel(s)                  : 2 channels
Channel layout              : L R
Sampling rate               : 48.0 kHz
Frame rate                  : 31.250 FPS (1536 SPF)
Bit depth                   : 16 bits
Compression mode            : Lossy
Stream size                 : 65.4 MiB (12%)
Alignment                   : Split accross interleaves
Interleave, duration        : 40  ms (1.00 video frame)
Interleave, preload duratio : 500  ms
Service kind                : Complete Main



Скриншоты:
[+] Всего файлов в раздаче - 2:
Pobediteli.e01.avi557.15 MB
Pobediteli.e02.avi557.51 MB

Показать еще раздачи по запросу победители:
2019-05-19 U Победители [01-10 из 10] (2017) WEBRip-AVC от Files-x 7.39 GB ↑ 28 ↓ 24
2019-05-18 U Победители [01-10 из 10] (2017) WEBRip-AVC от GeneralFilm 5.36 GB ↑ 72 ↓ 53
2019-05-18 U Победители [01-10 из 10] (2017) WEBRip 1080p от ExKinoRay 1К20.75 GB ↑ 83 ↓ 78
2019-05-18 U Победители [01-10 из 10] (2017) WEBRip 720p от ExKinoRay 14.12 GB ↑ 87 ↓ 72
2019-05-18 U Победители [01-10 из 10] (2017) WEBRip от GeneralFilm 5.44 GB ↑ 128 ↓ 100
2019-05-18 U Победители [01-10 из 10] (2017) WEBRip от Files-x 6.07 GB ↑ 204 ↓ 144
2019-05-18 U Победители [01-10 из 10] (2017) WEBRip от ExKinoRay 6.83 GB ↑ 41 ↓ 37

Отзывы
Зарегистрируйтесь чтобы добавить комментарий.
Обратная связь
Copyleft ©