↑↓Torrent.by
Поиск
Логин: Регистрация
Пароль: Восстановить пароль
Загрузка...

Бунтарка без причины / Wild Honey Pie (2018) WEB-DL 1080p | HDRezka Studio

Скачать buntarka-bez-prichiny-wild-honey-pie-2018-web-dl-1080p-hdrezka-studio.torrent
U Магнитная ссылка Размер: 4.63 GB Раздают: 39 Качают: 22 Добавлен: 2019-05-14 08:05:19
Бунтарка без причины / Wild Honey Pie (2018) WEB-DL 1080p | HDRezka Studio

Название: Бунтарка без причины
Оригинальное название: Wild Honey Pie
Год выпуска: 2018
Жанр:  Комедия, драма
Режиссер: Джэми Адамс
В ролях: Ричард Элис, Бретт Голдстин, Джемайма Кёрк, Элис Лоу, Крэйг Расселл, Джоэнна Скэнлэн, Тоня Смит, Сара Солемани, Дэн Кларк, Уильям Томас

О фильме: Герои - странная пара, которой предстоит дать собственный ответ на извечный вопрос: в чем состоит искусство быть вместе. Англичанка Джиллиан и ее валлийский супруг Оливер живут в доме мамы мужчины на побережье недалеко от Кардиффа. Оливер периодически подрабатывает диджеем, а Джиллиан пробует свои силы в качестве драматурга и театрального режиссера. Женщина занимается постановкой пьесы, которую сама написала, однако ее организаторские способности оказываются не на высшем уровне. Проблем добавляет и бывшая Оливера — Рэйчел, которая возвращается в его жизнь. Былые чувства супругов уже успели остыть, а сексуальная жизнь стала однообразной. Однажды Джиллиан приглашает к себе в гости продюсера Джерри, а Оливер проявляет интерес к Рэйчел.

Выпущено: Великобритания, Dignity Film Finance, Fivelanes Films, Unstoppable Entertainment
Продолжительность: 01:27:57
Перевод: Профессиональный (многоголосый, закадровый) | HDRezka Studio

Файл
Качество: WEB-DL 1080p
Контейнер: MKV
Видео: MPEG-4 AVC, 6710 Кбит/с, 1920x1080
Аудио 1: Русский: AC3, 2 ch, 192 Кбит/с - HDRezka Studio
Аудио 2: Английский: E-AC3, 6 ch, 640 Кбит/с - Original
Субтитры: Английские


[+] MediaInfo
General
Unique ID                                : 113711690130562694861722157915761576574 (0x558C132CF83EEBE367F6803F9BC88A7E)
Complete name                            : G:Wild.Honey.Pie.2018.WEB-DL.1080p.mkv
Format                                   : Matroska
Format version                           : Version 4 / Version 2
File size                                : 4.63 GiB
Duration                                 : 1 h 27 min
Overall bit rate                         : 7 544 kb/s
Encoded date                             : UTC 2019-05-12 04:23:46
Writing application                      : mkvmerge v20.0.0 ('I Am The Sun') 64-bit
Writing library                          : libebml v1.3.5 + libmatroska v1.4.8

Video
ID                                       : 1
Format                                   : AVC
Format/Info                              : Advanced Video Codec
Format profile                           : High@L4
Format settings                          : CABAC / 4 Ref Frames
Format settings, CABAC                   : Yes
Format settings, RefFrames               : 4 frames
Codec ID                                 : V_MPEG4/ISO/AVC
Duration                                 : 1 h 27 min
Bit rate                                 : 6 710 kb/s
Width                                    : 1 920 pixels
Height                                   : 1 080 pixels
Display aspect ratio                     : 16:9
Frame rate mode                          : Constant
Frame rate                               : 24.000 FPS
Color space                              : YUV
Chroma subsampling                       : 4:2:0
Bit depth                                : 8 bits
Scan type                                : Progressive
Bits/(Pixel*Frame)                       : 0.135
Stream size                              : 4.12 GiB (89%)
Language                                 : English
Default                                  : Yes
Forced                                   : No
Color range                              : Limited
Color primaries                          : BT.709
Transfer characteristics                 : BT.709
Matrix coefficients                      : BT.709

Audio #1
ID                                       : 2
Format                                   : AC-3
Format/Info                              : Audio Coding 3
Codec ID                                 : A_AC3
Duration                                 : 1 h 27 min
Bit rate mode                            : Constant
Bit rate                                 : 192 kb/s
Channel(s)                               : 2 channels
Channel positions                        : Front: L R
Sampling rate                            : 48.0 kHz
Frame rate                               : 31.250 FPS (1536 SPF)
Bit depth                                : 16 bits
Compression mode                         : Lossy
Stream size                              : 121 MiB (3%)
Title                                    : MVO, HDRezka Studio
Language                                 : Russian
Service kind                             : Complete Main
Default                                  : Yes
Forced                                   : No

Audio #2
ID                                       : 3
Format                                   : E-AC-3
Format/Info                              : Enhanced Audio Coding 3
Codec ID                                 : A_EAC3
Duration                                 : 1 h 27 min
Bit rate mode                            : Constant
Bit rate                                 : 640 kb/s
Channel(s)                               : 6 channels
Channel positions                        : Front: L C R, Side: L R, LFE
Sampling rate                            : 48.0 kHz
Frame rate                               : 187.500 FPS (256 SPF)
Compression mode                         : Lossy
Stream size                              : 403 MiB (8%)
Language                                 : English
Service kind                             : Complete Main
Default                                  : No
Forced                                   : No

Text
ID                                       : 4
Format                                   : UTF-8
Codec ID                                 : S_TEXT/UTF8
Codec ID/Info                            : UTF-8 Plain Text
Duration                                 : 1 h 24 min
Bit rate                                 : 88 b/s
Count of elements                        : 1456
Stream size                              : 55.0 KiB (0%)
Language                                 : English
Default                                  : No
Forced                                   : No



Скриншоты:
[+] Всего файлов в раздаче - 1:
Wild.Honey.Pie.2018.WEB-DL.1080p.mkv4.63 GB

Отзывы
Зарегистрируйтесь чтобы добавить комментарий.
Обратная связь
Copyleft ©