↑↓Torrent.by
Поиск
Логин: Регистрация
Пароль: Восстановить пароль
Загрузка...

Детектив Ди: Четыре Небесных царя / Di Renjie: zhi si da tian wang (2018) BDRip 720p | HDRezka Studio

Скачать detektiv-di-chetyre-nebesnyh-carya-renjie-zhi-si-da-tian-wang-2018-bdrip-720p-hdrezka-studio.torrent
U Магнитная ссылка Размер: 6.40 GB Раздают: 59 Качают: 32 Добавлен: 2019-05-14 10:56:07
Детектив Ди: Четыре Небесных царя / Di Renjie: zhi si da tian wang (2018) BDRip 720p | HDRezka Studio

Название: Детектив Ди: Четыре Небесных царя
Оригинальное название: Di Renjie: zhi si da tian wang
Год выхода: 2018
Жанр: Фэнтези, боевик, детектив, приключения
Режиссер: Харк Цуй
В ролях: Марк Чао, Карина Лау, Уилльям Фэн, Кенни Лин, Сандра Ма, Этан Жуань

О фильме:
Третья часть саги о детективе Ди повествует о его новых невероятных приключениях. Получив в дар от императора могущественный артефакт, способный укрощать драконов, детектив не только обрел новые способности, но и попал под подозрение императрицы Ву — та забеспокоилась, что он может попытаться захватить власть, и пожелала любой ценой вернуть артефакт обратно. Теперь детективу Ди предстоит защитить свое имя и раскрыть таинственное дело, в котором тесно переплетаются дворцовые интриги и сверхъестественные события, охватившие город.

Страна: Китай, Гонконг
Студия: Huayi Brothers
Продолжительность: 02:12:04
Перевод: Профессиональный многоголосый | HDRezka Studio

Файл
Кодек: x.264
Качество: BDRip 720p
Видео: MPEG-4 AVC, 5231 Kбит/с, 1280x692, 23.976 кадр/с
Аудио #1: Русский (АС3, 2ch, 192 Кбит/с, 48.0 KHz) Профессиональный (многоголосый, закадровый) HDRezka Studio
Аудио #2: Китайский (DTS, 6ch, 1509 Кбит/с, 48.0 KHz)
Субтитры: Русские, английские(*srt)
Трейлер




[+] MediaInfo
Источник: Detective.Dee.The.Four.Heavenly.Kings.2018.720p.BluRay.x264.DTS-HDH
General
Unique ID                      : 219053837554174382482654357704814273786 (0xA4CC3C095CA96220AAE9A257B286A4FA)
Complete name                  : Detective.Dee.The.Four.Heavenly.Kings.2018.BDRip.720p.mkv
Format                         : Matroska
Format version                 : Version 4 / Version 2
File size                      : 6.40 GiB
Duration                       : 2 h 12 min
Overall bit rate               : 6 935 kb/s
Encoded date                   : UTC 2019-05-13 13:49:05
Writing application            : mkvmerge v7.1.0 ('Good Love') 64bit built on Jul 27 2014 13:06:55
Writing library                : libebml v1.3.0 + libmatroska v1.4.1

Video
ID                             : 1
Format                         : AVC
Format/Info                    : Advanced Video Codec
Format profile                 : High@L4.1
Format settings, CABAC         : Yes
Format settings, RefFrames     : 9 frames
Codec ID                       : V_MPEG4/ISO/AVC
Duration                       : 2 h 12 min
Bit rate                       : 5 231 kb/s
Width                          : 1 280 pixels
Height                         : 692 pixels
Display aspect ratio           : 1.85:1
Frame rate mode                : Constant
Frame rate                     : 23.976 (24000/1001) FPS
Color space                    : YUV
Chroma subsampling             : 4:2:0
Bit depth                      : 8 bits
Scan type                      : Progressive
Bits/(Pixel*Frame)             : 0.246
Stream size                    : 4.83 GiB (75%)
Writing library                : x264 core 142 r2431+42 c69a006 tMod [8-bit@4:2:0 X86_64]
Encoding settings              : cabac=1 / ref=9 / deblock=1:-3:-3 / analyse=0x3:0x113 / me=umh / subme=10 / psy=1 / fade_compensate=0.00 / psy_rd=1.00:0.05 / mixed_ref=1 / me_range=32 / chroma_me=1 / trellis=2 / 8x8dct=1 / cqm=0 / deadzone=21,11 / fast_pskip=0 / chroma_qp_offset=-2 / threads=48 / lookahead_threads=5 / sliced_threads=0 / nr=0 / decimate=1 / interlaced=0 / bluray_compat=0 / constrained_intra=0 / fgo=0 / bframes=8 / b_pyramid=2 / b_adapt=2 / b_bias=0 / direct=3 / weightb=1 / open_gop=0 / weightp=2 / keyint=250 / keyint_min=23 / scenecut=40 / intra_refresh=0 / rc=crf / mbtree=0 / crf=18.7000 / qcomp=0.60 / qpmin=0:0:0 / qpmax=69:69:69 / qpstep=4 / ip_ratio=1.40 / pb_ratio=1.30 / aq=3:0.80 / aq-sensitivity=10.00 / aq-factor=1.00:1.00:1.00 / aq2=0 / aq3=0
Language                       : Chinese
Default                        : Yes
Forced                         : No
Color range                    : Limited
Matrix coefficients            : BT.709

Audio #1
ID                             : 2
Format                         : AC-3
Format/Info                    : Audio Coding 3
Format settings, Endianness    : Big
Codec ID                       : A_AC3
Duration                       : 2 h 12 min
Bit rate mode                  : Constant
Bit rate                       : 192 kb/s
Channel(s)                     : 2 channels
Channel positions              : Front: L R
Sampling rate                  : 48.0 kHz
Frame rate                     : 31.250 FPS (1536 SPF)
Bit depth                      : 16 bits
Compression mode               : Lossy
Stream size                    : 181 MiB (3%)
Title                          : MVO | HDRezka Studio
Language                       : Russian
Service kind                   : Complete Main
Default                        : Yes
Forced                         : No

Audio #2
ID                             : 3
Format                         : DTS
Format/Info                    : Digital Theater Systems
Mode                           : 16
Format settings, Endianness    : Big
Codec ID                       : A_DTS
Duration                       : 2 h 12 min
Bit rate mode                  : Constant
Bit rate                       : 1 509 kb/s
Channel(s)                     : 6 channels
Channel positions              : Front: L C R, Side: L R, LFE
Sampling rate                  : 48.0 kHz
Frame rate                     : 93.750 FPS (512 SPF)
Bit depth                      : 24 bits
Compression mode               : Lossy
Stream size                    : 1.39 GiB (22%)
Language                       : Chinese
Default                        : No
Forced                         : No

Text #1
ID                             : 4
Format                         : UTF-8
Codec ID                       : S_TEXT/UTF8
Codec ID/Info                  : UTF-8 Plain Text
Duration                       : 2 h 7 min
Bit rate                       : 83 b/s
Count of elements              : 1422
Stream size                    : 77.9 KiB (0%)
Language                       : Russian
Default                        : No
Forced                         : No

Text #2
ID                             : 5
Format                         : UTF-8
Codec ID                       : S_TEXT/UTF8
Codec ID/Info                  : UTF-8 Plain Text
Duration                       : 2 h 7 min
Bit rate                       : 46 b/s
Count of elements              : 1421
Stream size                    : 43.0 KiB (0%)
Language                       : English
Default                        : No
Forced                         : No

Menu
00:00:00.000                   : en:00:00:00.000
00:09:37.535                   : en:00:09:37.535
00:20:46.912                   : en:00:20:46.912
00:31:00.317                   : en:00:31:00.317
00:40:30.970                   : en:00:40:30.970
00:47:54.747                   : en:00:47:54.747
01:00:14.486                   : en:01:00:14.486
01:08:47.332                   : en:01:08:47.332
01:22:26.567                   : en:01:22:26.567
01:33:52.669                   : en:01:33:52.669
01:42:48.871                   : en:01:42:48.871
01:59:52.977                   : en:01:59:52.977



Скриншоты:
[+] Всего файлов в раздаче - 1:
Detective.Dee.The.Four.Heavenly.Kings.2018.BDRip.720p.mkv6.40 GB

Показать еще раздачи по запросу детектив:
2019-06-14 U Покемон. Детектив Пикачу / Pokémon Detective Pikachu (2019) HDRip 1080p | P 11.00 GB ↑ 432 ↓ 331
2019-06-14 U Покемон. Детектив Пикачу / Pokémon Detective Pikachu (2019) HDRip | P 1.59 GB ↑ 501 ↓ 183
2019-06-14 U Покемон. Детектив Пикачу / Pokemon Detective Pikachu (2019) HDRip | P 1.46 GB ↑ 208 ↓ 35
2019-06-14 U Покемон. Детектив Пикачу / Pokemon Detective Pikachu (2019) HDRip | P 1.53 GB ↑ 611 ↓ 54
2019-06-14 U Покемон. Детектив Пикачу / Pokemon Detective Pikachu (2019) HDRip 1080p от NewSeriesHD | P 10.87 GB ↑ 843 ↓ 171
2019-05-21 U Частный детектив Бикслер Хай / Bixler High Private Eye (2019) WEB-DLRip от Portablius | D 745.43 MB ↑ 25 ↓ 3
2019-05-20 U Частный детектив Бикслер Хай / Bixler High Private Eye (2019) WEB-DLRip от Deadmauvlad | D 1.28 GB ↑ 27 ↓ 5

Отзывы
Зарегистрируйтесь чтобы добавить комментарий.
Обратная связь
Copyleft ©