↑↓Torrent.by
Поиск
Логин: Регистрация
Пароль: Восстановить пароль
Загрузка...

Пункт назначения: Дьюсбери / Destination: Dewsbury (2018) WEB-DL 1080p | HDRezka Studio

Скачать punkt-naznacheniya-dyusberi-destination-dewsbury-2018-web-dl-1080p-hdrezka-studio.torrent
U Магнитная ссылка Размер: 3.11 GB Раздают: 80 Качают: 31 Добавлен: 2019-05-14 13:24:58
Пункт назначения: Дьюсбери / Destination: Dewsbury (2018) WEB-DL 1080p | HDRezka Studio

Название: Пункт назначения: Дьюсбери
Оригинальное название: Destination: Dewsbury
Год выхода: 2018
Производство: Великобритания / Circus Pictures, Wilde International
Жанр:  Комедия
Режиссер: Джек Спринг
Актеры: Анна Доусон, Ричард Мэйсон, Филип Майер, Велтон Лишке, Морис Бирн, Дэвид Дж. Кеог, Шарон Спинк, Шарон Хейвуд, Мэтт Шихан, Дэвид МакКлелланд

Описание:
Комедия о четырех друзьях, которые проехали всю Великобританию, чтобы встретиться с умирающим школьным другом в последний раз. Смешная, грубая, оскорбительная британская комедия в чистом виде.

Дата мировой премьеры: 29 апреля 2018
Продолжительность: 01:26:58
Перевод: Многоголосый закадровый, профессиональный (HDRezka Studio)
Субтитры: Английские

Файл
Качество видео: WEB-DL 1080p
Видео: AVC/H.264, 1920x816, ~4547 Kbps
Аудио #1: AC3, 2 ch, 192 Kbps - Русский
Аудио #2: AC3, 6 ch, 384 Kbps - Английский


[+] M/I
Общее
Уникальный идентификатор                 : 324889010752776643190003245407083543009 (0xF46B58F1E694FA86E9743D5CA875B9E1)
Полное имя                               : C:XXПункт назначенияDestination Dewsbury 2018 WEB-DL 1080p-LQ.mkv
Формат                                   : Matroska
Версия формата                           : Version 4
Размер файла                             : 3,11 Гбайт
Продолжительность                        : 1 ч. 26 м.
Общий поток                              : 5125 Кбит/сек
Дата кодирования                         : UTC 2019-05-14 03:13:42
Программа кодирования                    : mkvmerge v20.0.0 ('I Am The Sun') 64-bit
Библиотека кодирования                   : libebml v1.3.5 + libmatroska v1.4.8

Видео
Идентификатор                            : 1
Формат                                   : AVC
Формат/Информация                        : Advanced Video Codec
Профиль формата                          : High@L4
Настройки формата                        : CABAC / 5 Ref Frames
Параметр CABAC формата                   : Да
Параметр RefFrames формата               : 5 кадров
Идентификатор кодека                     : V_MPEG4/ISO/AVC
Продолжительность                        : 1 ч. 26 м.
Битрейт                                  : 4547 Кбит/сек
Ширина                                   : 1920 пикселей
Высота                                   : 816 пикселей
Соотношение сторон                       : 2,35:1
Режим частоты кадров                     : Постоянный
Частота кадров                           : 23,976 (24000/1001) кадра/сек
Цветовое пространство                    : YUV
Субдискретизация насыщенности            : 4:2:0
Битовая глубина                          : 8 бит
Тип развёртки                            : Прогрессивная
Бит/(Пиксели*Кадры)                      : 0.121
Размер потока                            : 2,76 Гбайт (89%)
Язык                                     : English
Default                                  : Да
Forced                                   : Нет
Цветовой диапазон                        : Limited
Основные цвета                           : BT.709
Характеристики трансфера                 : BT.709
Коэффициенты матрицы                     : BT.709

Аудио #1
Идентификатор                            : 2
Формат                                   : AC-3
Формат/Информация                        : Audio Coding 3
Коммерческое название                    : Dolby Digital
Идентификатор кодека                     : A_AC3
Продолжительность                        : 1 ч. 26 м.
Вид битрейта                             : Постоянный
Битрейт                                  : 192 Кбит/сек
Каналы                                   : 2 канала
Channel layout                           : L R
Частота                                  : 48,0 КГц
Частота кадров                           : 31,250 кадров/сек (1536 SPF)
Битовая глубина                          : 16 бит
Метод сжатия                             : С потерями
Размер потока                            : 119 Мбайт (4%)
Заголовок                                : MVO HDRezka Studio
Язык                                     : Russian
ServiceKind                       : Complete Main
Default                                  : Да
Forced                                   : Нет

Аудио #2
Идентификатор                            : 3
Формат                                   : AC-3
Формат/Информация                        : Audio Coding 3
Коммерческое название                    : Dolby Digital
Идентификатор кодека                     : A_AC3
Продолжительность                        : 1 ч. 26 м.
Вид битрейта                             : Постоянный
Битрейт                                  : 384 Кбит/сек
Каналы                                   : 6 каналов
Channel layout                           : L R C LFE Ls Rs
Частота                                  : 48,0 КГц
Частота кадров                           : 31,250 кадров/сек (1536 SPF)
Битовая глубина                          : 16 бит
Метод сжатия                             : С потерями
Размер потока                            : 239 Мбайт (7%)
Язык                                     : English
ServiceKind                       : Complete Main
Default                                  : Нет
Forced                                   : Нет

Текст
Идентификатор                            : 4
Формат                                   : UTF-8
Идентификатор кодека                     : S_TEXT/UTF8
Идентификатор кодека/Информация          : UTF-8 Plain Text
Продолжительность                        : 1 ч. 26 м.
Битрейт                                  : 83 бит/сек
ElementCount                             : 1892
Размер потока                            : 53,0 Кбайт (0%)
Язык                                     : English
Default                                  : Нет
Forced                                   : Нет

Меню
00:00:00.000                             : en:1
00:15:00.000                             : en:2
00:30:00.000                             : en:3
00:45:00.000                             : en:4
01:00:00.000                             : en:5
01:15:00.000                             : en:6



Скриншоты:
[+] Всего файлов в раздаче - 1:
Destination Dewsbury 2018 WEB-DL 1080p-LQ.mkv3.11 GB

Похожие раздачи по запросу - пункт:
2017-07-10 U Пункт назначения: Пенталогия / Final Destination: Pentology (2000-2011) HDRip-AVC от KinoHitHD | D 7.21 GB ↑ 338 ↓ 68
2016-02-19 U Хаапе Генрих - Пункт назначения – Москва. Фронтовой дневник военного врача. 1941–1942 (2014) FB2 1К1.89 MB ↑ 255 ↓ 2
2013-10-27 U Пункт назначения 1-5 / Final Destination. Pentalogy (2000-2011) BDRip 1080p 3К38.80 GB ↑ 68 ↓ 101

Отзывы
Зарегистрируйтесь чтобы добавить комментарий.
Обратная связь
Copyleft ©