↑↓Torrent.by
Поиск
Логин: Регистрация
Пароль: Восстановить пароль
Загрузка...

Игра Престолов / Game Of Thrones [08х01-05 из 06] (2019) WEB-DLRip-AVC | HDrezka Studio

Скачать igra-prestolov-game-of-thrones-08h01-05-iz-06-2019-web-dlrip-avc-hdrezka-studio.torrent
U Магнитная ссылка Размер: 3.19 GB Раздают: 39 Качают: 169 Добавлен: 2019-05-14 13:25:22
Игра Престолов / Game Of Thrones [08х01-05 из 06] (2019) WEB-DLRip-AVC | HDrezka Studio

Название: Игра Престолов
Оригинальное название: Game Of Thrones
Год выхода: 2019
Жанр: фэнтези, драма, мелодрама, приключения
Режиссер: Дэвид Наттер, Алан Тейлор, Алекс Грейвз
В ролях: Питер Динклэйдж, Лина Хиди, Эмилия Кларк, Кит Харингтон, Софи Тернер, Мэйси Уильямс, Николай Костер-Вальдау, Иэн Глен, Элфи Оуэн-Аллен, Джон Брэдли и другие

О фильме:
К концу подходит время благоденствия, и лето, длившееся несколько десятилетий, угасает. Вокруг средоточия власти Семи королевств, Железного трона, зреет заговор, и в это непростое время король решает искать поддержки у друга юности Эддарда Старка (Шон Бин). В мире, где все — от короля до наемника — рвутся к власти, плетут интриги и готовы вонзить нож в спину, есть место и благородству, состраданию и любви. Между тем, никто не замечает пробуждение тьмы из легенд далеко на Севере — и лишь Стена защищает живых к югу от нее. Между древней ледяной Стеной и пламенем навсегда ушедших из мира драконов разворачивается «Игра престолов» — долгожданная экранизация культовой саги Джорджа Р. Р. Мартина «Песнь льда и пламени».

Страна: США, Великобритания
Студия: HBO
Продолжительность: ~01:05:00
Перевод: профессиональный, многоголосый закадровый | HDrezka Studio
Реклама: Присутствует (заставка студии вначале)

Файл
Кодек: AVC
Качество: WEBRip-AVC
Видео: 712x400, 16:9, 23.976 fps, ~1000 kb/s
Звук: Russian, AC3, 48 kHz, 2 ch, 192 kbps
Субтитры: Russian (Forced, надписи)

Семпл

Релиз от: HDREZKA


[+] О релизе и озвучке
Сериал озвучен голосами актеров, которые озвучивают дубляж от Кравец.



[+] MediaInfo
General
Complete name                            : Game.of.Thrones.S08E01.WEBRip.400p.2.0.rus.HDREZKA.STUDIO.mkv
Format                                   : Matroska
Format version                           : Version 4
File size                                : 519 MiB
Duration                                 : 53 min 14 s
Overall bit rate mode                    : Variable
Overall bit rate                         : 1 364 kb/s
Encoded date                             : UTC 2019-04-18 23:28:17
Writing application                      : mkvmerge v28.2.0 ('The Awakening') 64-bit
Writing library                          : libebml v1.3.6 + libmatroska v1.4.9

Video
ID                                       : 1
Format                                   : AVC
Format/Info                              : Advanced Video Codec
Format profile                           : High@L4.1
Format settings                          : CABAC / 1 Ref Frames
Format settings, CABAC                   : Yes
Format settings, RefFrames               : 1 frame
Codec ID                                 : V_MPEG4/ISO/AVC
Duration                                 : 53 min 14 s
Bit rate mode                            : Variable
Bit rate                                 : 1 171 kb/s
Width                                    : 712 pixels
Height                                   : 400 pixels
Display aspect ratio                     : 16:9
Frame rate mode                          : Constant
Frame rate                               : 23.976 (24000/1001) FPS
Color space                              : YUV
Chroma subsampling                       : 4:2:0
Bit depth                                : 8 bits
Scan type                                : Progressive
Bits/(Pixel*Frame)                       : 0.171
Stream size                              : 446 MiB (86%)
Default                                  : Yes
Forced                                   : No

Audio
ID                                       : 2
Format                                   : AC-3
Format/Info                              : Audio Coding 3
Commercial name                          : Dolby Digital
Codec ID                                 : A_AC3
Duration                                 : 53 min 14 s
Bit rate mode                            : Constant
Bit rate                                 : 192 kb/s
Channel(s)                               : 2 channels
Channel layout                           : L R
Sampling rate                            : 48.0 kHz
Frame rate                               : 31.250 FPS (1536 SPF)
Bit depth                                : 16 bits
Compression mode                         : Lossy
Stream size                              : 73.1 MiB (14%)
Language                                 : Russian
Service kind                             : Complete Main
Default                                  : Yes
Forced                                   : No

Text
ID                                       : 3
Format                                   : ASS
Codec ID                                 : S_TEXT/ASS
Codec ID/Info                            : Advanced Sub Station Alpha
Duration                                 : 46 s 750 ms
Bit rate                                 : 35 b/s
Count of elements                        : 3
Compression mode                         : Lossless
Stream size                              : 210 Bytes (0%)
Language                                 : Russian
Default                                  : Yes



Скриншоты:
[+] Всего файлов в раздаче - 5:
Game.of.Thrones.S08E02.WEBRip.400p.rus.2.0.HDREZKA.STUDIO.mkv420.47 MB
Game.of.Thrones.S08E01.WEBRip.400p.rus.2.0.HDREZKA.STUDIO.mkv519.46 MB
Game.of.Thrones.S08E04.WEBRip.400p.rus.2.0.HDREZKA.STUDIO.mkv669.64 MB
Game.of.Thrones.S08E03.WEBRip.400p.rus.2.0.HDREZKA.STUDIO.mkv693.46 MB
Game.of.Thrones.S08E05.WEBRip.400p.rus.2.0.HDREZKA.STUDIO.mkv963.36 MB

Показать еще раздачи по запросу игра:
Сегодня U Игра престолов / Game Of Thrones [S08] (2019) WEB-DLRip-AVC | HDrezka Studio 3.84 GB ↑ 36 ↓ 126
Сегодня U Игра престолов / Game of Thrones [S08] (2019) WEB-DLRip от Scarabey | Amedia 6.21 GB ↑ 46 ↓ 129
Сегодня U Игра престолов / Game Of Thrones [S08] (2019) WEB-DLRip 1080p | HDrezka Studio 20.40 GB ↑ 43 ↓ 241
Сегодня U Игра престолов / Game of Thrones [S08] (2019) WEB-DLRip от Scarabey | Amedia 2К2.85 GB ↑ 67 ↓ 228
Сегодня U Игра престолов / Game Of Thrones [S08] (2019) WEB-DLRip 720p | HDrezka Studio 9.64 GB ↑ 68 ↓ 219
Вчера U Игра престолов / Game of Thrones [S08] (2019) WEB-DLRip-AVC от ExKinoRay | Amedia 7.47 GB ↑ 118 ↓ 362
Вчера U Игра престолов / Game of Thrones [S08] (2019) WEB-DL 720p | Amedia 11.52 GB ↑ 405 ↓ 3186

Отзывы
Зарегистрируйтесь чтобы добавить комментарий.
Обратная связь
Copyleft ©