↑↓Torrent.by
Поиск
Логин: Регистрация
Пароль: Восстановить пароль
Загрузка...

Зоолимпиада / Animalympics (1980) BDRip 1080p от HDReactor | P, A, L1

Скачать zoolimpiada-animalympics-1980-bdrip-1080p-ot-hdreactor-p-a-l1.torrent
U Магнитная ссылка Размер: 7.76 GB Раздают: 28 Качают: 14 Добавлен: 2019-05-14 13:25:49
Зоолимпиада / Animalympics (1980) BDRip 1080p от HDReactor | P, A, L1

Название: Зоолимпиада
Оригинальное название: Animalympics
Год выхода: 1980
Жанр: мультфильм, комедия, семейный, спорт
Режиссер: Стивен Лисбергер
В ролях: Майкл Фремер,Генри Хаммел ,Рене Фромаж, Кит Мамбо

О фильме:
Веселый и жизнерадостный мультипликационный фильм об олимпиаде животных, наделенных, естественно, чертами и привычками людей из разных стран. Есть и представители Советского Союза. Много умных и забавных эпизодов, юмора, замечательное музыкальное сопровождение.
Сделан фильм в форме телерепортажа на весь мир.

Продолжительность: 01:18:07
Перевод: Профессиональный многоголосый, любительский одноголосый, авторский
Субтитры: Английские

Файл
Качество: BDRip (1080p)
Видео: MPEG-4 AVC, 13452 Кбит/с, 1480х1080
Аудио #1: Русский (AC3, 2 ch, 192 Кбит/с) - многоголосый закадровый ОРТ
Аудио #2: Русский (AC3, 2 ch, 192 Кбит/с) - авторский В.Махонько
Аудио #3: Русский (AC3, 2 ch, 192 Кбит/с) - одноголосый закадровый "ПЕРЕГОВОРЩИК"
Аудио #4: Английский (AC3, 2 ch, 192 Кбит/с)

Релиз:


[+] МедиаИнфо
Формат                                   : Matroska
Версия формата                           : Version 2
Размер файла                             : 7,76 Гбайт
Продолжительность                        : 1 ч. 18 м.
Общий поток                              : 14,2 Мбит/сек
Название фильма                          : ~V ad~
Дата кодирования                         : UTC 2019-05-13 16:19:50
Программа кодирования                    : mkvmerge v6.5.0 ('Isn't she lovely') built on Oct 20 2013 12:50:05
Библиотека кодирования                   : libebml v1.3.0 + libmatroska v1.4.1
Обложка                                  : Yes
Attachments                              : cover.jpg

Видео
Идентификатор                            : 1
Формат                                   : AVC
Формат/Информация                        : Advanced Video Codec
Профиль формата                          : High@L4.1
Настройки формата                        : CABAC / 4 Ref Frames
Параметр CABAC формата                   : Да
Параметр RefFrames формата               : 4 кадра
Идентификатор кодека                     : V_MPEG4/ISO/AVC
Продолжительность                        : 1 ч. 18 м.
Битрейт                                  : 13,5 Мбит/сек
Ширина                                   : 1480 пикселей
Высота                                   : 1080 пикселей
Соотношение сторон                       : 1,370
Режим частоты кадров                     : Постоянный
Частота кадров                           : 23,976 (24000/1001) кадра/сек
Цветовое пространство                    : YUV
Субдискретизация насыщенности            : 4:2:0
Битовая глубина                          : 8 бит
Тип развёртки                            : Прогрессивная
Бит/(Пиксели*Кадры)                      : 0.351
Размер потока                            : 7,18 Гбайт (93%)
Заголовок                                : ~V~
Библиотека кодирования                   : x264 core 157 r2969 d4099dd
Настройки программы                      : cabac=1 / ref=4 / deblock=1:-1:-1 / analyse=0x3:0x133 / me=umh / subme=11 / psy=1 / psy_rd=1.00:0.00 / mixed_ref=1 / me_range=32 / chroma_me=1 / trellis=2 / 8x8dct=1 / cqm=0 / deadzone=21,11 / fast_pskip=0 / chroma_qp_offset=-2 / threads=12 / lookahead_threads=1 / sliced_threads=0 / nr=0 / decimate=0 / interlaced=0 / bluray_compat=0 / constrained_intra=0 / bframes=10 / b_pyramid=2 / b_adapt=2 / b_bias=0 / direct=3 / weightb=1 / open_gop=0 / weightp=2 / keyint=240 / keyint_min=23 / scenecut=40 / intra_refresh=0 / rc=2pass / mbtree=0 / bitrate=13452 / ratetol=1.0 / qcomp=0.65 / qpmin=0 / qpmax=69 / qpstep=4 / cplxblur=20.0 / qblur=0.5 / ip_ratio=1.30 / pb_ratio=1.30 / aq=3:1.00
Язык                                     : Английский
Default                                  : Да
Forced                                   : Нет

Аудио #1
Идентификатор                            : 2
Формат                                   : AC-3
Формат/Информация                        : Audio Coding 3
Коммерческое название                    : Dolby Digital
Идентификатор кодека                     : A_AC3
Продолжительность                        : 1 ч. 18 м.
Вид битрейта                             : Постоянный
Битрейт                                  : 192 Кбит/сек
Каналы                                   : 2 канала
Channel layout                           : L R
Частота                                  : 48,0 КГц
Частота кадров                           : 31,250 кадров/сек (1536 SPF)
Битовая глубина                          : 16 бит
Метод сжатия                             : С потерями
Размер потока                            : 107 Мбайт (1%)
Заголовок                                : MVO [ОРТ]
Язык                                     : Русский
Service Kind                             : Complete Main
Default                                  : Да
Forced                                   : Нет

Аудио #2
Идентификатор                            : 3
Формат                                   : AC-3
Формат/Информация                        : Audio Coding 3
Коммерческое название                    : Dolby Digital
Идентификатор кодека                     : A_AC3
Продолжительность                        : 1 ч. 18 м.
Вид битрейта                             : Постоянный
Битрейт                                  : 192 Кбит/сек
Каналы                                   : 2 канала
Channel layout                           : L R
Частота                                  : 48,0 КГц
Частота кадров                           : 31,250 кадров/сек (1536 SPF)
Битовая глубина                          : 16 бит
Метод сжатия                             : С потерями
Размер потока                            : 107 Мбайт (1%)
Заголовок                                : AVO [В.Махонько]
Язык                                     : Русский
Service Kind                             : Complete Main
Default                                  : Нет
Forced                                   : Нет

Аудио #3
Идентификатор                            : 4
Формат                                   : AC-3
Формат/Информация                        : Audio Coding 3
Коммерческое название                    : Dolby Digital
Идентификатор кодека                     : A_AC3
Продолжительность                        : 1 ч. 18 м.
Вид битрейта                             : Постоянный
Битрейт                                  : 192 Кбит/сек
Каналы                                   : 2 канала
Channel layout                           : L R
Частота                                  : 48,0 КГц
Частота кадров                           : 31,250 кадров/сек (1536 SPF)
Битовая глубина                          : 16 бит
Метод сжатия                             : С потерями
Размер потока                            : 107 Мбайт (1%)
Заголовок                                : VO [ПЕРЕГОВОРЩИК]
Язык                                     : Русский
Service Kind                             : Complete Main
Default                                  : Нет
Forced                                   : Нет

Аудио #4
Идентификатор                            : 5
Формат                                   : AC-3
Формат/Информация                        : Audio Coding 3
Коммерческое название                    : Dolby Digital
Идентификатор кодека                     : A_AC3
Продолжительность                        : 1 ч. 18 м.
Вид битрейта                             : Постоянный
Битрейт                                  : 192 Кбит/сек
Каналы                                   : 2 канала
Channel layout                           : L R
Частота                                  : 48,0 КГц
Частота кадров                           : 31,250 кадров/сек (1536 SPF)
Битовая глубина                          : 16 бит
Метод сжатия                             : С потерями
Размер потока                            : 107 Мбайт (1%)
Язык                                     : Английский
Service Kind                             : Complete Main
Default                                  : Нет
Forced                                   : Нет

Текст
Идентификатор                            : 6
Формат                                   : UTF-8
Идентификатор кодека                     : S_TEXT/UTF8
Идентификатор кодека/Информация          : UTF-8 Plain Text
Язык                                     : Английский
Default                                  : Нет
Forced                                   : Нет

Меню
00:00:00.000                             : en:Chapter 01
00:05:11.978                             : en:Chapter 02
00:07:00.503                             : en:Chapter 03
00:13:14.460                             : en:Chapter 04
00:16:19.812                             : en:Chapter 05
00:19:52.608                             : en:Chapter 06
00:26:16.283                             : en:Chapter 07
00:29:34.773                             : en:Chapter 08
00:31:16.833                             : en:Chapter 09
00:35:54.694                             : en:Chapter 10
00:39:18.189                             : en:Chapter 11
00:44:27.748                             : en:Chapter 12
00:48:10.596                             : en:Chapter 13
00:56:05.028                             : en:Chapter 14
01:00:49.395                             : en:Chapter 15
01:02:02.176                             : en:Chapter 16
01:04:03.548                             : en:Chapter 17
01:06:09.256                             : en:Chapter 18
01:08:14.840                             : en:Chapter 19
01:15:36.782                             : en:Chapter 20



Скриншоты:
[+] Всего файлов в раздаче - 1:
Animalympics.1980.BDRip.1080p.HDReactor.mkv7.76 GB

Отзывы
Зарегистрируйтесь чтобы добавить комментарий.
Обратная связь
Copyleft ©