↑↓Torrent.by
Поиск
Логин: Регистрация
Пароль: Восстановить пароль
Загрузка...

Чернобыль / Chernobyl [01x01-02 из 05] (2019) WEB-DLRip-AVC от OlLanDGroup | Amedia

Скачать chernobyl-01x01-02-iz-05-2019-web-dlrip-avc-ot-ollandgroup-amedia.torrent
U Магнитная ссылка Размер: 2.38 GB Раздают: 35 Качают: 30 Добавлен: 2019-05-15 07:50:17
Чернобыль / Chernobyl [01x01-02 из 05] (2019) WEB-DLRip-AVC от OlLanDGroup | Amedia

Название: Чернобыль
Оригинальное название: Chernobyl
Год выпуска: 2019
Жанр:  Драма, история
Выпущено: Великобритания, США, Home Box Office (HBO), Sky Television
Режиссер: Йохан Ренк
В ролях: Эмили Уотсон, Стеллан Скарсгорд, Джаред Харрис, Пол Риттер, Джесси Бакли, Адриан Роулинз, Кон О'Нилл, Сэм Тротон, Адам Нагаитис, Барри Кеоган, Ралф Айнесон, Марк Льюис Джоунс, Фарес Фарес, Дэвид Денсик, Джошуа Лиз, Росс Армстронг, Фил Барантини, Билли Постлтуэйт, Джей Симпсон, Дагги Макмикин, Джеймс Космо, Карл Дэвис, Джерард Кернс, Кирэн О'Брайен, Джейми Сивес, Майкл Сока

О фильме: История об аварии на Чернобыльской АЭС в 1986 году, эвакуации жителей Припяти и ликвидации последствий. «Чернобыль» драматизирует истинную историю одной из худших техногенных катастроф в истории и рассказывает о храбрых мужчинах и женщинах, которые пожертвовали собой, чтобы спасти Европу от невообразимой катастрофы.

Качество: WEB-DLRip (AVC)
Видео: MPEG-4 AVC, ~ 2300 Кбит/с, 1024х512, 23,976 кадр/с
Аудио: Русский (AC3, 6 ch, 448 Кбит/с)
Размер: 2.38 ГБ
Продолжительность: 2 x ~ 01:00:00
Перевод: Профессиональный многоголосый
Субтитры: Русские

Озвучивание - Профессиональное многоголосое (Novamedia по заказу Amedia)
За звук, большое спасибо EniaHD

Релиз:  Rip by:


[+] x264

x264 [info]: frame I:613   Avg QP:12.11  size: 60037
x264 [info]: frame P:18334 Avg QP:15.14  size: 24507
x264 [info]: frame B:65725 Avg QP:16.10  size:  8239
x264 [info]: consecutive B-frames:  1.9%  2.7%  7.5% 24.6% 16.9% 31.6%  6.1%  3.7%  1.4%  1.7%  2.0%
x264 [info]: mb I  I16..4: 12.4% 72.8% 14.8%
x264 [info]: mb P  I16..4:  2.1% 14.5%  1.6%  P16..4: 29.7% 34.0% 11.4%  1.4%  0.1%    skip: 5.3%
x264 [info]: mb B  I16..4:  0.5%  1.2%  0.2%  B16..8: 33.9% 22.3%  3.8%  direct: 6.5%  skip:31.6%  L0:45.7% L1:45.3% BI: 9.0%
x264 [info]: 8x8 transform intra:75.6% inter:56.3%
x264 [info]: direct mvs  spatial:98.1% temporal:1.9%
x264 [info]: coded y,uvDC,uvAC intra: 71.1% 82.2% 69.1% inter: 26.5% 28.6% 12.7%
x264 [info]: i16 v,h,dc,p: 59% 12%  8% 21%
x264 [info]: i8 v,h,dc,ddl,ddr,vr,hd,vl,hu:  8%  7% 15%  9% 12% 11% 12% 11% 14%
x264 [info]: i4 v,h,dc,ddl,ddr,vr,hd,vl,hu: 12%  8% 24%  7% 10%  9%  9%  8% 11%
x264 [info]: i8c dc,h,v,p: 50% 24% 15% 11%
x264 [info]: Weighted P-Frames: Y:13.3% UV:8.2%
x264 [info]: ref P L0: 44.7%  7.1% 19.7%  7.1%  6.3%  4.1%  4.1%  2.2%  2.3%  1.9%  0.4%  0.0%
x264 [info]: ref B L0: 68.3% 14.4%  6.4%  3.6%  2.4%  2.1%  1.6%  0.8%  0.4%
x264 [info]: ref B L1: 92.3%  7.7%
x264 [info]: kb/s:2327.83
---------------
x264 [info]: frame I:777   Avg QP:13.20  size: 63737
x264 [info]: frame P:19995 Avg QP:16.05  size: 24044
x264 [info]: frame B:72588 Avg QP:17.01  size:  8039
x264 [info]: consecutive B-frames:  1.9%  2.4%  6.7% 27.2% 15.5% 30.1%  6.5%  5.1%  1.7%  1.3%  1.6%
x264 [info]: mb I  I16..4:  9.7% 74.7% 15.6%
x264 [info]: mb P  I16..4:  1.2% 12.7%  1.4%  P16..4: 30.3% 34.8% 12.8%  1.8%  0.1%    skip: 4.9%
x264 [info]: mb B  I16..4:  0.2%  0.9%  0.1%  B16..8: 35.4% 22.4%  4.0%  direct: 5.4%  skip:31.6%  L0:44.6% L1:46.1% BI: 9.4%
x264 [info]: 8x8 transform intra:80.1% inter:53.5%
x264 [info]: direct mvs  spatial:98.6% temporal:1.4%
x264 [info]: coded y,uvDC,uvAC intra: 81.5% 73.6% 51.2% inter: 26.7% 20.1% 6.4%
x264 [info]: i16 v,h,dc,p: 46% 12%  9% 33%
x264 [info]: i8 v,h,dc,ddl,ddr,vr,hd,vl,hu:  9%  7% 13%  9% 13% 12% 12% 11% 13%
x264 [info]: i4 v,h,dc,ddl,ddr,vr,hd,vl,hu: 13%  9% 15%  8% 12% 11% 11%  9% 11%
x264 [info]: i8c dc,h,v,p: 42% 30% 17% 12%
x264 [info]: Weighted P-Frames: Y:4.7% UV:2.6%
x264 [info]: ref P L0: 45.5%  8.1% 19.7%  6.8%  6.1%  3.9%  3.9%  2.0%  2.1%  1.7%  0.2%  0.0%
x264 [info]: ref B L0: 69.7% 13.8%  6.2%  3.4%  2.3%  2.0%  1.5%  0.7%  0.3%
x264 [info]: ref B L1: 92.2%  7.8%
x264 [info]: kb/s:2288.33



[+] Содержание

01. 1:23:45 / 1:23:45 (06.05.2019)
02. Пожалуйста, сохраняйте спокойствие / Please Remain Calm (13.05.2019)
03. Откройся широко, о Земля! / Open Wide, O Earth (20.05.2019)
04. Счастье всего человечества / The Happiness of All Mankind (27.05.2019)
05. Вечная память / Vichnaya Pamyat (03.06.2019)



[+] Инфо-файл

Общее
Уникальный идентификатор                 : 209387289377951074769673819181824645219 (0x9D86866A3F57A297A3FD21E8FC249863)
Полное имя                               : D:ЗагрузкиChernobyl.S01.2019.OlLanDGroupChernobyl.S01E01.2019.x264.WEB-DLRip.(AVC).OlLanDGroup.mkv
Формат                                   : Matroska
Версия формата                           : Version 4 / Version 2
Размер файла                             : 1,14 Гбайт
Продолжительность                        : 58 м. 51 с.
Общий поток                              : 2778 Кбит/сек
Название фильма                          : Чернобыль.1:23:45.2019.Rip by: ollan
Дата кодирования                         : UTC 2019-05-08 16:31:22
Программа кодирования                    : mkvmerge v6.5.0 ('Isn't she lovely') built on Oct 20 2013 12:50:05
Библиотека кодирования                   : libebml v1.3.0 + libmatroska v1.4.1
Обложка                                  : Yes
Attachments                              : Cover - Chernobyl.png

Видео
Идентификатор                            : 1
Формат                                   : AVC
Формат/Информация                        : Advanced Video Codec
Профиль формата                          : High@L4.1
Настройки формата                        : CABAC / 10 Ref Frames
Параметр CABAC формата                   : Да
Параметр ReFrames формата                : 10 кадров
Идентификатор кодека                     : V_MPEG4/ISO/AVC
Продолжительность                        : 58 м. 51 с.
Битрейт                                  : 2331 Кбит/сек
Ширина                                   : 1024 пикселя
Высота                                   : 512 пикселей
Соотношение сторон                       : 2,000
Режим частоты кадров                     : Постоянный
Частота кадров                           : 23,976 (24000/1001) кадра/сек
Цветовое пространство                    : YUV
Субдискретизация насыщенности            : 4:2:0
Битовая глубина                          : 8 бит
Тип развёртки                            : Прогрессивная
Бит/(Пиксели*Кадры)                      : 0.185
Размер потока                            : 958 Мбайт (82%)
Библиотека кодирования                   : x264 core 146 r2538 121396c
Настройки программы                      : cabac=1 / ref=10 / deblock=1:-2:-3 / analyse=0x3:0x133 / me=umh / subme=11 / psy=1 / psy_rd=0.90:0.00 / mixed_ref=1 / me_range=64 / chroma_me=1 / trellis=2 / 8x8dct=1 / cqm=0 / deadzone=21,11 / fast_pskip=0 / chroma_qp_offset=-2 / threads=12 / lookahead_threads=3 / sliced_threads=0 / nr=0 / decimate=0 / interlaced=0 / bluray_compat=0 / constrained_intra=0 / bframes=10 / b_pyramid=2 / b_adapt=2 / b_bias=0 / direct=3 / weightb=1 / open_gop=0 / weightp=2 / keyint=240 / keyint_min=23 / scenecut=40 / intra_refresh=0 / rc_lookahead=40 / rc=2pass / mbtree=0 / bitrate=2331 / ratetol=1.0 / qcomp=0.60 / qpmin=0 / qpmax=69 / qpstep=4 / cplxblur=20.0 / qblur=0.5 / vbv_maxrate=50000 / vbv_bufsize=62500 / nal_hrd=none / filler=0 / ip_ratio=1.40 / pb_ratio=1.30 / aq=1:1.00
Язык                                     : English
Default                                  : Да
Forced                                   : Нет

Аудио
Идентификатор                            : 2
Формат                                   : AC-3
Формат/Информация                        : Audio Coding 3
Идентификатор кодека                     : A_AC3
Продолжительность                        : 58 м. 51 с.
Вид битрейта                             : Постоянный
Битрейт                                  : 448 Кбит/сек
Каналы                                   : 6 каналов
Расположение каналов                     : Front: L C R, Side: L R, LFE
Частота                                  : 48,0 КГц
Частота кадров                           : 31,250 кадров/сек (1536 SPF)
Битовая глубина                          : 16 бит
Метод сжатия                             : С потерями
Размер потока                            : 189 Мбайт (16%)
Заголовок                                : Novamedia
Язык                                     : Russian
Service kind                             : Complete Main
Default                                  : Да
Forced                                   : Нет

Текст #1
Идентификатор                            : 3
Формат                                   : UTF-8
Идентификатор кодека                     : S_TEXT/UTF8
Идентификатор кодека/Информация          : UTF-8 Plain Text
Заголовок                                : Forced
Язык                                     : Russian
Default                                  : Да
Forced                                   : Нет

Текст #2
Идентификатор                            : 4
Формат                                   : UTF-8
Идентификатор кодека                     : S_TEXT/UTF8
Идентификатор кодека/Информация          : UTF-8 Plain Text
Заголовок                                : Full
Язык                                     : Russian
Default                                  : Нет
Forced                                   : Нет

Общее
Уникальный идентификатор                 : 213231988264322103366164800729144043243 (0xA06AFCB48C5DF745968050F27CB326EB)
Полное имя                               : D:ЗагрузкиChernobyl.S01.2019.OlLanDGroupChernobyl.S01E02.2019.x264.WEB-DLRip.(AVC).OlLanDGroup.mkv
Формат                                   : Matroska
Версия формата                           : Version 4 / Version 2
Размер файла                             : 1,24 Гбайт
Продолжительность                        : 1 ч. 4 м.
Общий поток                              : 2739 Кбит/сек
Название фильма                          : Чернобыль.Пожалуйста, сохраняйте спокойствие.2019.Rip by: ollan
Дата кодирования                         : UTC 2019-05-14 14:05:34
Программа кодирования                    : mkvmerge v6.5.0 ('Isn't she lovely') built on Oct 20 2013 12:50:05
Библиотека кодирования                   : libebml v1.3.0 + libmatroska v1.4.1
Обложка                                  : Yes
Attachments                              : Cover - Chernobyl.png

Видео
Идентификатор                            : 1
Формат                                   : AVC
Формат/Информация                        : Advanced Video Codec
Профиль формата                          : High@L4.1
Настройки формата                        : CABAC / 10 Ref Frames
Параметр CABAC формата                   : Да
Параметр ReFrames формата                : 10 кадров
Идентификатор кодека                     : V_MPEG4/ISO/AVC
Продолжительность                        : 1 ч. 4 м.
Битрейт                                  : 2291 Кбит/сек
Ширина                                   : 1024 пикселя
Высота                                   : 512 пикселей
Соотношение сторон                       : 2,000
Режим частоты кадров                     : Постоянный
Частота кадров                           : 23,976 (24000/1001) кадра/сек
Цветовое пространство                    : YUV
Субдискретизация насыщенности            : 4:2:0
Битовая глубина                          : 8 бит
Тип развёртки                            : Прогрессивная
Бит/(Пиксели*Кадры)                      : 0.182
Размер потока                            : 1,01 Гбайт (82%)
Библиотека кодирования                   : x264 core 146 r2538 121396c
Настройки программы                      : cabac=1 / ref=10 / deblock=1:-2:-3 / analyse=0x3:0x133 / me=umh / subme=11 / psy=1 / psy_rd=0.90:0.00 / mixed_ref=1 / me_range=64 / chroma_me=1 / trellis=2 / 8x8dct=1 / cqm=0 / deadzone=21,11 / fast_pskip=0 / chroma_qp_offset=-2 / threads=12 / lookahead_threads=3 / sliced_threads=0 / nr=0 / decimate=0 / interlaced=0 / bluray_compat=0 / constrained_intra=0 / bframes=10 / b_pyramid=2 / b_adapt=2 / b_bias=0 / direct=3 / weightb=1 / open_gop=0 / weightp=2 / keyint=240 / keyint_min=23 / scenecut=40 / intra_refresh=0 / rc_lookahead=40 / rc=2pass / mbtree=0 / bitrate=2291 / ratetol=1.0 / qcomp=0.60 / qpmin=0 / qpmax=69 / qpstep=4 / cplxblur=20.0 / qblur=0.5 / vbv_maxrate=50000 / vbv_bufsize=62500 / nal_hrd=none / filler=0 / ip_ratio=1.40 / pb_ratio=1.30 / aq=1:1.00
Язык                                     : English
Default                                  : Да
Forced                                   : Нет

Аудио
Идентификатор                            : 2
Формат                                   : AC-3
Формат/Информация                        : Audio Coding 3
Идентификатор кодека                     : A_AC3
Продолжительность                        : 1 ч. 4 м.
Вид битрейта                             : Постоянный
Битрейт                                  : 448 Кбит/сек
Каналы                                   : 6 каналов
Расположение каналов                     : Front: L C R, Side: L R, LFE
Частота                                  : 48,0 КГц
Частота кадров                           : 31,250 кадров/сек (1536 SPF)
Битовая глубина                          : 16 бит
Метод сжатия                             : С потерями
Размер потока                            : 208 Мбайт (16%)
Заголовок                                : Novamedia
Язык                                     : Russian
Service kind                             : Complete Main
Default                                  : Да
Forced                                   : Нет

Текст #1
Идентификатор                            : 3
Формат                                   : UTF-8
Идентификатор кодека                     : S_TEXT/UTF8
Идентификатор кодека/Информация          : UTF-8 Plain Text
Заголовок                                : Forced
Язык                                     : Russian
Default                                  : Да
Forced                                   : Нет

Текст #2
Идентификатор                            : 4
Формат                                   : UTF-8
Идентификатор кодека                     : S_TEXT/UTF8
Идентификатор кодека/Информация          : UTF-8 Plain Text
Заголовок                                : Full
Язык                                     : Russian
Default                                  : Нет
Forced                                   : Нет




Скриншоты:
[+] Всего файлов в раздаче - 2:
Chernobyl.S01E01.2019.x264.WEB-DLRip.(AVC).OlLanDGroup.mkv1.14 GB
Chernobyl.S01E02.2019.x264.WEB-DLRip.(AVC).OlLanDGroup.mkv1.24 GB

Показать еще раздачи по запросу чернобыль:
Вчера U Чернобыль / Chernobyl [01x01-02 из 05] (2019) WEB-DL 1080 | IdeaFilm 8.84 GB ↑ 126 ↓ 87
2019-05-16 U Чернобыль / Chernobyl [01x01-02 из 05] (2019) WEB-DLRip от Scarabey | Amedia 1.75 GB ↑ 76 ↓ 68
2019-05-15 U Чернобыль / Chernobyl [01x02 из 05] (2019) WEB-DLRip от Twister & ExKinoRay | Amedia 2.46 GB ↑ 37 ↓ 56
2019-05-15 U Чернобыль / Chernobyl [01x01-02 из 05] (2019) WEB-DLRip 1080p | IdeaFilm 6.69 GB ↑ 24 ↓ 40
2019-05-15 U Чернобыль / Chernobyl [01x02 из 05] (2019) WEB-DLRip-AVC | Amedia 1.03 GB ↑ 35 ↓ 37
2019-05-15 U Чернобыль / Chernobyl [01x01-02 из 05] (2019) WEB-DL 720p | Amedia 5.09 GB ↑ 128 ↓ 152
2019-05-15 U Чернобыль / Chernobyl [01x01-02 из 05] (2019) WEB-DL 1080p | Amedia 8.98 GB ↑ 290 ↓ 399

Отзывы
Зарегистрируйтесь чтобы добавить комментарий.
Обратная связь
Copyleft ©