↑↓torrent.by
Поиск
Логин: Регистрация
Пароль: Восстановить пароль

Пальма (2020) HDRip-AVC | Лицензия

Скачать palma-2020-hdrip-avc-licenziya.torrent
U Магнитная ссылка Размер: 1.45 GB Раздают: 36 Качают: 20 Добавлен: 2021-09-06 20:05:33
Пальма (2020) HDRip-AVC | Лицензия

Название: Пальма
Год выхода: 2020
Жанр:  Семейный, приключения, реальные события
Режиссер: Александр Домогаров мл.
В ролях: Виктор Добронравов, Леонид Басов, Владимир Ильин, Валерия Федорович, Евгения Дмитриева, Игорь Хрипунов, Павел Майков, Владимир Симонов, Ян Цапник, Филипп Савинков, Дарья Лузина, Елена Анисимова, Михаил Богдасаров, Микаэл Джанибекян, Баин Бовальдинов, Илья Луцак, Александр Домогаров, Хироюки Ватанабе, Томоко Фудзита, Мицу Дан, Осаму Ямамото, Дзюн Такамацу, Дзюнко Абэ, Ёсикуни Дотин, Алина Загитова, Анастасия Шига

О фильме:
Овчарка по кличке Пальма вынужденно расстается с хозяином: тот улетает за границу, а верную собаку не берут на рейс и оставляют прямо на летном поле. Пальма прячется в аэропорту и каждый день встречает самолеты в надежде, что хозяин вернулся. Но время идет… 9-летний Коля — тоже новенький в аэропорту: он потерял маму и переехал к отцу-пилоту, которого почти не знает. Пальма становится для мальчика родственной душой и лучшим другом. А отцу Коли, летчику Лазареву, предстоит заслужить доверие и любовь сына, сделав нелегкий выбор между карьерой и семьей. И найти способ не разлучить друзей, когда за Пальмой однажды возвращается хозяин.

Страна: Россия
Студия: Телеканал «РОССИЯ 1», OKKO Studios, АМЕДИА, Марс Медиа Энтертейнмент
Продолжительность: 01:50:13
Язык: Русский | Лицензия
Субтитры: Отсутствуют

Файл                                      
Формат: Matroska
Качество: HDRip-AVC
Видео: 960x402 at 24.000 fps, x264@L4.1, ~1693 kbps, 0.183 bpp
Аудио: AC3, 2 ch, ~192 kbps - | Русский | -

***Релиз от: -=DoMiNo=-


[+] M/I
x264 [info]: frame I:1176  Avg QP:16.67  size: 55855
x264 [info]: frame P:35971 Avg QP:19.20  size: 18420
x264 [info]: frame B:121595 Avg QP:21.16  size:  5507
x264 [info]: consecutive B-frames:  2.3%  4.6%  9.2% 26.8% 15.2% 18.7%  7.3%  7.9%  6.7%  0.3%  0.4%  0.1%  0.5%

General
Unique ID                   : 71899335629148917985894955240432193269 (0x36174EEFD3C32122184EAA310AB9CEF5)
Complete name               : I:Пальма.(2020).HDRip-AVC.[-=DoMiNo=-].mkv
Format                      : Matroska
Format version              : Version 4
File size                   : 1.45 GiB
Duration                    : 1 h 50 min
Overall bit rate            : 1 885 kb/s
Movie name                  : Пальма.(2020).HDRip-AVC.[-=DoMiNo=-]
Encoded date                : UTC 2021-09-05 13:24:06
Writing application         : mkvmerge v61.0.0 ('So') 64-bit
Writing library             : libebml v1.4.2 + libmatroska v1.6.4
Cover                       : Yes
Attachments                 : Cover.png / Cover 2.jpg

Video
ID                          : 1
Format                      : AVC
Format/Info                 : Advanced Video Codec
Format profile              : High@L4.1
Format settings             : CABAC / 12 Ref Frames
Format settings, CABAC      : Yes
Format settings, Reference  : 12 frames
Codec ID                    : V_MPEG4/ISO/AVC
Duration                    : 1 h 50 min
Bit rate                    : 1 693 kb/s
Width                       : 960 pixels
Height                      : 402 pixels
Display aspect ratio        : 2.40:1
Frame rate mode             : Constant
Frame rate                  : 24.000 FPS
Color space                 : YUV
Chroma subsampling          : 4:2:0
Bit depth                   : 8 bits
Scan type                   : Progressive
Bits/(Pixel*Frame)          : 0.183
Stream size                 : 1.30 GiB (90%)
Title                       : -=DoMiNo=-
Writing library             : x264 core 164 r3065+55M 280faca t_mod_New [(8 & 10)-bit@all X86_64]
Encoding settings           : cabac=1 / ref=12 / deblock=1:-3:-2 / analyse=0x3:0x133 / me=umh / subme=11 / psy=1 / fade_compensate=0.00 / psy_rd=1.00:0.05 / mixed_ref=1 / me_range=32 / chroma_me=1 / trellis=2 / 8x8dct=1 / cqm=0 / deadzone=21,11 / fast_pskip=0 / chroma_qp_offset=-3 / threads=24 / lookahead_threads=3 / sliced_threads=0 / nr=0 / decimate=0 / interlaced=0 / bluray_compat=0 / constrained_intra=0 / fgo=0 / bframes=12 / b_pyramid=2 / b_adapt=2 / b_bias=0 / direct=3 / weightb=1 / open_gop=0 / weightp=2 / keyint=240 / keyint_min=24 / scenecut=40 / intra_refresh=0 / rc_lookahead=60 / rc=2pass / mbtree=0 / bitrate=1693 / ratetol=1.0 / qcomp=0.75 / qpmin=0:0:0 / qpmax=69:69:69 / qpstep=4 / cplxblur=20.0 / qblur=0.5 / vbv_maxrate=50000 / vbv_bufsize=62500 / nal_hrd=none / filler=0 / ip_ratio=1.40 / pb_ratio=1.30 / aq=3:0.80 / aq-sensitivity=10.00 / aq-factor=1.00:1.00:1.00 / aq2=0 / aq3=0
Language                    : Russian
Default                     : Yes
Forced                      : No

Audio
ID                          : 2
Format                      : AC-3
Format/Info                 : Audio Coding 3
Commercial name             : Dolby Digital
Codec ID                    : A_AC3
Duration                    : 1 h 50 min
Bit rate mode               : Constant
Bit rate                    : 192 kb/s
Channel(s)                  : 2 channels
Channel layout              : L R
Sampling rate               : 48.0 kHz
Frame rate                  : 31.250 FPS (1536 SPF)
Compression mode            : Lossy
Stream size                 : 151 MiB (10%)
Language                    : Russian
Service kind                : Complete Main
Default                     : Yes
Forced                      : No

Menu
00:00:00.000                : :Chapter 1
00:12:22.750                : :Chapter 2
00:18:23.958                : :Chapter 3
00:24:54.208                : :Chapter 4
00:33:14.000                : :Chapter 5
00:40:45.208                : :Chapter 6
00:48:23.708                : :Chapter 7
00:54:40.208                : :Chapter 8
01:01:25.250                : :Chapter 9
01:07:00.666                : :Chapter 10
01:12:34.625                : :Chapter 11
01:16:57.250                : :Chapter 12
01:24:45.125                : :Chapter 13
01:29:35.208                : :Chapter 14
01:35:58.125                : :Chapter 15
01:45:53.291                : :Chapter 16
01:50:13.291                : :Chapter 17



Скриншоты:
[+] Всего файлов в раздаче - 1:
Пальма.(2020).HDRip-AVC.[-=DoMiNo=-].mkv1.45 GB

Показать еще раздачи по запросу пальма:
2021-09-06 U Пальма (2020) HDRip от MegaPeer | Лицензия 745.59 MB ↑ 45 ↓ 11
2021-09-05 U Пальма (2020) HDRip-AVC от MediaBit | Лицензия 2.26 GB ↑ 47 ↓ 19
2021-09-05 U Пальма (2020) BDRip 720p от ELEKTRI4KA | Лицензия 6.28 GB ↑ 62 ↓ 22
2021-09-05 U Пальма (2020) BDRip 1080p от ELEKTRI4KA | Лицензия 10.90 GB ↑ 39 ↓ 38
2021-09-05 U Пальма (2020) BDRip от ELEKTRI4KA | Лицензия 1.46 GB ↑ 28 ↓ 13
2021-05-21 U Пальма (2020) WEB-DLRip-AVC от Files-x | iTunes 1.46 GB ↑ 295 ↓ 36
2021-05-20 U Пальма (2020) WEB-DLRip 747.74 MB ↑ 221 ↓ 55

Отзывы
Зарегистрируйтесь чтобы добавить комментарий.
Загрузите программу
  byTorrent
Обратная связь
Copyleft ©