↑↓Torrent.by
Поиск
Логин: Регистрация
Пароль: Восстановить пароль
Загрузка...

Воин / Warfighter (2018) WEB-DL 1080p | HDRezka Studio

Скачать voin-warfighter-2018-web-dl-1080p-hdrezka-studio.torrent
U Магнитная ссылка Размер: 3.77 GB Раздают: 114 Качают: 91 Добавлен: 2019-05-16 15:17:05
Воин / Warfighter (2018) WEB-DL 1080p | HDRezka Studio

Воин / Warfighter

Страна: США
Производство: Fire Born Studios, TLG Motion Pictures
Год выпуска: 2018
Жанр:  боевик, драма, мелодрама, военный
Продолжительность: 01:45:32

Режиссер: Джерри Дж. Анджело
Авторы сценария: Джерри Дж. Анджело, Керри Паттон
В ролях: Джерри Дж. Анджело, Пол Логан, Айзек С. Синглтон мл., Виктория Клер, Джошуа Сантана, Каролина Фиппс, Майкл Кинг, Дэвид Роббинс

Описание: Расти Виттенбург — солдат специального подразделения военно-морских сил США, страдающий от ночных кошмаров, вызванных посттравматическим стрессовым расстройством. Тяжелое психическое состояние Расти мешает ему сохранять баланс в отношениях с женой Ванессой и маленькой дочерью Оливией. Периодически мужчина погружается в воспоминания о прошлых миссиях и потерянных товарищах, что еще больше осложняет его адаптацию в гражданской среде. Когда возникает необходимость выполнить сложную задачу по спасению американских военнопленных, кошмары Расти начинают проявляться наяву...

Перевод: Профессиональный (многоголосый, закадровый) | HDRezka Studio
Субтитры: английские

Качество: WEB-DL 1080p
Формат: MKV
Видео кодек: AVC
Аудио кодек: АС3
Видео: 1920x804 (2.40:1), 24.000 fps, MPEG-4 AVC ~4 542 kbps avg
Аудио №1: 48.0 kHz, AC3 Dolby Digital, 2/0 (L,R) ch, ~192 kbps | RUS / MVO
Аудио №2: 48.0 kHz, AC3 Dolby Digital, 3/2 (L,C,R,l,r) + LFE ch, ~384 kbps | ENG
Формат субтитров: UTF-8 Plain Text

Дата премьеры (мир): 27 апреля 2018


[+] Media Info
General
Unique ID                                : 314698651366648121417603207295023851988 (0xECC0C16FD2A3B162C49629289D5629D4)
Complete name                            : Warfighter.2018.WEB-DL.1080p.mkv
Format                                   : Matroska
Format version                           : Version 4 / Version 2
File size                                : 3.77 GiB
Duration                                 : 1 h 45 min
Overall bit rate                         : 5 120 kb/s
Encoded date                             : UTC 2019-05-16 01:27:39
Writing application                      : mkvmerge v20.0.0 ('I Am The Sun') 64-bit
Writing library                          : libebml v1.3.5 + libmatroska v1.4.8

Video
ID                                       : 1
Format                                   : AVC
Format/Info                              : Advanced Video Codec
Format profile                           : High@L4
Format settings                          : CABAC / 5 Ref Frames
Format settings, CABAC                   : Yes
Format settings, RefFrames               : 5 frames
Codec ID                                 : V_MPEG4/ISO/AVC
Duration                                 : 1 h 45 min
Bit rate                                 : 4 542 kb/s
Width                                    : 1 920 pixels
Height                                   : 804 pixels
Display aspect ratio                     : 2.40:1
Frame rate mode                          : Constant
Frame rate                               : 24.000 FPS
Color space                              : YUV
Chroma subsampling                       : 4:2:0
Bit depth                                : 8 bits
Scan type                                : Progressive
Bits/(Pixel*Frame)                       : 0.123
Stream size                              : 3.35 GiB (89%)
Language                                 : English
Default                                  : Yes
Forced                                   : No
Color range                              : Limited
Color primaries                          : BT.709
Transfer characteristics                 : BT.709
Matrix coefficients                      : BT.709

Audio #1
ID                                       : 2
Format                                   : AC-3
Format/Info                              : Audio Coding 3
Codec ID                                 : A_AC3
Duration                                 : 1 h 45 min
Bit rate mode                            : Constant
Bit rate                                 : 192 kb/s
Channel(s)                               : 2 channels
Channel positions                        : Front: L R
Sampling rate                            : 48.0 kHz
Frame rate                               : 31.250 FPS (1536 SPF)
Bit depth                                : 16 bits
Compression mode                         : Lossy
Stream size                              : 145 MiB (4%)
Title                                    : MVO HDRezka Studio
Language                                 : Russian
Service kind                             : Complete Main
Default                                  : Yes
Forced                                   : No

Audio #2
ID                                       : 3
Format                                   : AC-3
Format/Info                              : Audio Coding 3
Codec ID                                 : A_AC3
Duration                                 : 1 h 45 min
Bit rate mode                            : Constant
Bit rate                                 : 384 kb/s
Channel(s)                               : 6 channels
Channel positions                        : Front: L C R, Side: L R, LFE
Sampling rate                            : 48.0 kHz
Frame rate                               : 31.250 FPS (1536 SPF)
Bit depth                                : 16 bits
Compression mode                         : Lossy
Stream size                              : 290 MiB (8%)
Language                                 : English
Service kind                             : Complete Main
Default                                  : No
Forced                                   : No

Text
ID                                       : 4
Format                                   : UTF-8
Codec ID                                 : S_TEXT/UTF8
Codec ID/Info                            : UTF-8 Plain Text
Duration                                 : 1 h 41 min
Bit rate                                 : 49 b/s
Count of elements                        : 1467
Stream size                              : 36.8 KiB (0%)
Language                                 : English
Default                                  : No
Forced                                   : No

Menu
00:00:00.000                             : en:Chapter 1
00:10:12.612                             : en:Chapter 2
00:17:18.037                             : en:Chapter 3
00:30:26.825                             : en:Chapter 4
00:40:31.429                             : en:Chapter 5
00:48:23.901                             : en:Chapter 6
00:57:46.463                             : en:Chapter 7
01:09:34.170                             : en:Chapter 8
01:21:19.875                             : en:Chapter 9
01:30:56.451                             : en:Chapter 10
01:41:20.074                             : en:Chapter 11



Скриншоты:
[+] Всего файлов в раздаче - 1:
Warfighter.2018.WEB-DL.1080p.mkv3.77 GB

Показать еще раздачи по запросу воин:
2019-06-15 U Воин / Warrior [S01] (2019) WEB-DLRip | LostFilm 9.26 GB ↑ 36 ↓ 53
2019-06-10 U Воин / Warrior [S01] (2019) WEB-DL 1080p | Кириллица 23.31 GB ↑ 47 ↓ 57
2019-06-10 U Воин / Warrior [S01] (2019) WEB-DLRip от Scarabey | Кириллица 7.48 GB ↑ 66 ↓ 116
2019-06-09 U Воин / Warrior [S01] (2019) WEB-DL 720p | Кириллица 11.92 GB ↑ 229 ↓ 754
2019-06-02 U Воин / Warrior [01x01-09 из 10] (2019) WEB-DL 1080p | Кириллица 20.75 GB ↑ 33 ↓ 209
2019-05-26 U Воин / Warrior [01x01-08 из 10] (2019) WEB-DL 1080p | Кириллица 18.31 GB ↑ 42 ↓ 217
2019-05-21 U Воин / Warrior [01x01-07 из 10] (2019) WEB-DLRip | LostFilm 6.40 GB ↑ 33 ↓ 48

Отзывы
Зарегистрируйтесь чтобы добавить комментарий.
Обратная связь
Copyleft ©