↑↓Torrent.by
Поиск
Логин: Регистрация
Пароль: Восстановить пароль
Загрузка...

Смертельная тропа / Body at Brighton Rock (2019) WEB-DL 1080p | HDRezka Studio

Скачать smertelnaya-tropa-body-at-brighton-rock-2019-web-dl-1080p-hdrezka-studio.torrent
U Магнитная ссылка Размер: 5.73 GB Раздают: 71 Качают: 96 Добавлен: 2019-05-16 15:17:26
Смертельная тропа / Body at Brighton Rock (2019) WEB-DL 1080p | HDRezka Studio

Смертельная тропа / Body at Brighton Rock

Страна: США
Производство: Protostar Pictures, Soapbox Films
Год выпуска: 2019
Жанр:  триллер
Продолжительность: 01:27:20

Режиссер: Роксанна Бенжамин
В ролях: Карина Фонтес, Кэйси Адамс, Эмили Альтхаус, Миранда Бэйли, Мартин Спэньер, Мэтт Питерс, Сьюзэн Бурк, Джон Гец, Джон Ф. Бич

Описание: Молодая смотрительница горного заповедника отправляется на плановый обход парка. Отклонившись от маршрута, она находит тело мужчины. В силу обстоятельств девушка оказывается отрезана от связи и не может покинуть потенциальное место преступления. Ждать помощи неоткуда, а из чащи появляются незваные гости…

Перевод: Профессиональный (многоголосый, закадровый) | HDRezka Studio
Субтитры: английские

Качество: WEB-DL 1080p
Формат: MKV
Видео кодек: AVC
Аудио кодек: АС3 | E-AC3
Видео: 1920x1040 (1.85:1), 23.976 fps, MPEG-4 AVC ~8 566 kbps avg
Аудио №1: 48.0 kHz, AC3 Dolby Digital, 2/0 (L,R) ch, ~192 kbps | RUS / HDRezka Studio
Аудио №2: 48.0 kHz, Enhanced Audio Coding 3, 3/2 (L,C,R,l,r) + LFE ch, ~640 kbps | ENG
Формат субтитров: UTF-8 Plain Text

Дата премьеры (мир): 8 марта 2019
Дата премьеры (РФ): 21 мая 2019, «Вольга»


[+] Media Info
General
Unique ID                                : 233515618506362699441499787359541823874 (0xAFAD78E32BB839217457534B90DC8982)
Complete name                            : Body.at.Brighton.Rock.2019.WEB-DL.1080p.mkv
Format                                   : Matroska
Format version                           : Version 4 / Version 2
File size                                : 5.73 GiB
Duration                                 : 1 h 27 min
Overall bit rate                         : 9 400 kb/s
Encoded date                             : UTC 2019-05-15 16:39:00
Writing application                      : mkvmerge v20.0.0 ('I Am The Sun') 64-bit
Writing library                          : libebml v1.3.5 + libmatroska v1.4.8

Video
ID                                       : 1
Format                                   : AVC
Format/Info                              : Advanced Video Codec
Format profile                           : High@L4
Format settings                          : CABAC / 4 Ref Frames
Format settings, CABAC                   : Yes
Format settings, RefFrames               : 4 frames
Codec ID                                 : V_MPEG4/ISO/AVC
Duration                                 : 1 h 27 min
Bit rate mode                            : Constant
Bit rate                                 : 8 566 kb/s
Nominal bit rate                         : 10 000 kb/s
Width                                    : 1 920 pixels
Height                                   : 1 040 pixels
Display aspect ratio                     : 1.85:1
Frame rate mode                          : Constant
Frame rate                               : 23.976 (24000/1001) FPS
Color space                              : YUV
Chroma subsampling                       : 4:2:0
Bit depth                                : 8 bits
Scan type                                : Progressive
Bits/(Pixel*Frame)                       : 0.179
Stream size                              : 5.23 GiB (91%)
Language                                 : English
Default                                  : Yes
Forced                                   : No
Color range                              : Limited
Color primaries                          : BT.709
Transfer characteristics                 : BT.709
Matrix coefficients                      : BT.709

Audio #1
ID                                       : 2
Format                                   : AC-3
Format/Info                              : Audio Coding 3
Codec ID                                 : A_AC3
Duration                                 : 1 h 27 min
Bit rate mode                            : Constant
Bit rate                                 : 192 kb/s
Channel(s)                               : 2 channels
Channel positions                        : Front: L R
Sampling rate                            : 48.0 kHz
Frame rate                               : 31.250 FPS (1536 SPF)
Bit depth                                : 16 bits
Compression mode                         : Lossy
Stream size                              : 120 MiB (2%)
Title                                    : MVO HDRezka Studio
Language                                 : Russian
Service kind                             : Complete Main
Default                                  : Yes
Forced                                   : No

Audio #2
ID                                       : 3
Format                                   : E-AC-3
Format/Info                              : Enhanced Audio Coding 3
Codec ID                                 : A_EAC3
Duration                                 : 1 h 27 min
Bit rate mode                            : Constant
Bit rate                                 : 640 kb/s
Channel(s)                               : 6 channels
Channel positions                        : Front: L C R, Side: L R, LFE
Sampling rate                            : 48.0 kHz
Frame rate                               : 187.500 FPS (256 SPF)
Compression mode                         : Lossy
Stream size                              : 400 MiB (7%)
Language                                 : English
Service kind                             : Complete Main
Default                                  : No
Forced                                   : No

Text
ID                                       : 4
Format                                   : UTF-8
Codec ID                                 : S_TEXT/UTF8
Codec ID/Info                            : UTF-8 Plain Text
Duration                                 : 1 h 22 min
Bit rate                                 : 27 b/s
Count of elements                        : 560
Stream size                              : 16.8 KiB (0%)
Language                                 : English
Default                                  : No
Forced                                   : No



Скриншоты:
[+] Всего файлов в раздаче - 1:
Body.at.Brighton.Rock.2019.WEB-DL.1080p.mkv5.73 GB

Показать еще раздачи по запросу смертельная:
2019-05-26 U Смертельная битва: Наследие / Mortal Kombat: Legacy [S01-02] (2011-2013) WEB-DLRip 720p | LostFilm 5.68 GB ↑ 44 ↓ 29
2019-05-19 U Смертельная тропа / Body at Brighton Rock (2019) WEB-DLRip от Portablius | HDRezka Studio 746.10 MB ↑ 68 ↓ 9
2019-05-18 U Смертельная тропа / Body at Brighton Rock (2019) WEBRip 720p | HDRezka Studio 2.89 GB ↑ 49 ↓ 12
2019-05-17 U Смертельная тропа / Body at Brighton Rock (2019) WEB-DLRip-AVC от ExKinoRay | HDRezka Studio 744.17 MB ↑ 28 ↓ 24
2019-05-17 U Смертельная тропа / Body at Brighton Rock (2019) WEB-DLRip | HDRezka Studio 1.46 GB ↑ 60 ↓ 31
2019-03-23 U Мое прекрасное тело: Смертельная мода на здоровье (2019) SATRip 1.33 GB ↑ 87 ↓ 20
2019-02-21 U Аладдин и смертельная лампа / Aladdin and the Death Lamp (2012) WEB-DL 720p | L1 2.74 GB ↑ 225 ↓ 82

Отзывы
Зарегистрируйтесь чтобы добавить комментарий.
Обратная связь
Copyleft ©