↑↓Torrent.by
Поиск
Логин: Регистрация
Пароль: Восстановить пароль
Загрузка...

Чего хотят мужчины / What Men Want (2019) BDRip 1080p от селезень | iTunes

Скачать chego-hotyat-muzhchiny-what-men-want-2019-bdrip-1080p-ot-selezen-itunes.torrent
U Магнитная ссылка Размер: 15.02 GB Раздают: 97 Качают: 127 Добавлен: 2019-05-16 20:01:42
Чего хотят мужчины / What Men Want (2019) BDRip 1080p от селезень | iTunes

Название: Чего хотят мужчины
Оригинальное название: What Men Want
Год выхода: 2019
Жанр: Фэнтези, мелодрама, комедия
Режиссер: Адам Шенкман
В ролях: Тараджи П. Хенсон, Кристен Ледлоу, Джош Бренер, Келлан Латс, Джастин Альварез, Крис Витаск, Макс Гринфилд, Пол Брайан Джонсон, Брайан Босворт, Каусар Мохаммед, Трэйси Морган

О фильме: Али Дэвис — успешный менеджер спортивных звезд, продвижению по карьере которой постоянно мешают коллеги-мужчины. Получив возможность слышать мысли мужчин, она использует свой талант, чтобы изменить правила игры и заключить контракт с молодым и талантливым бейсболистом.

Страна: США
Студия: BET Films, Paramount Players, Will Packer Productions
Продолжительность: 01:57:06
Перевод: Дублированный | iTunes

Качество: BDRip 1080p
Видео: MPEG-4 AVC, 1920x804, 16.5 Mbit/s, 23.976 fps
Звук:
Аудио #01: 48 kHz, AC3, 5.1, 384 Kbps | iTunes | RUS |
Аудио #02: 48 kHz, DTS, 5.1, 1510 Kbps | Оригинал |  ENG |
Субтитры: Русские (Forced, full), английские

Релиз:


[+] MI
General
Unique ID                   : 214050322900652391861534221991313530519 (0xA10897B7C7B703591CFB96D14525DE97)
Complete name               : D:Video111What.Men.Want.2019.BDRip.1080p.seleZen.mkv
Format                      : Matroska
Format version              : Version 4
File size                   : 15.0 GiB
Duration                    : 1 h 57 min
Overall bit rate            : 18.4 Mb/s
Movie name                  : What Men Want 2019 from селезень
Encoded date                : UTC 2019-05-16 07:46:35
Writing application         : mkvmerge v33.1.0 ('Primrose') 64-bit
Writing library             : libebml v1.3.7 + libmatroska v1.5.0

Video
ID                          : 1
Format                      : AVC
Format/Info                 : Advanced Video Codec
Format profile              : High@L4.1
Format settings             : CABAC / 5 Ref Frames
Format settings, CABAC      : Yes
Format settings, Reference  : 5 frames
Codec ID                    : V_MPEG4/ISO/AVC
Duration                    : 1 h 57 min
Bit rate                    : 16.5 Mb/s
Width                       : 1 920 pixels
Height                      : 804 pixels
Display aspect ratio        : 2.40:1
Frame rate mode             : Constant
Frame rate                  : 23.976 (24000/1001) FPS
Color space                 : YUV
Chroma subsampling          : 4:2:0
Bit depth                   : 8 bits
Scan type                   : Progressive
Bits/(Pixel*Frame)          : 0.445
Stream size                 : 13.5 GiB (90%)
Title                       : GALVANiZE
Writing library             : x264 core 157 r2867+103 0d6443f t_mod_Custom_2 [8-bit@all X86]
Encoding settings           : cabac=1 / ref=5 / deblock=1:-3:-3 / analyse=0x3:0x133 / me=umh / subme=11 / psy=1 / fade_compensate=0.00 / psy_rd=1.05:0.00 / mixed_ref=1 / me_range=32 / chroma_me=1 / trellis=2 / 8x8dct=1 / cqm=0 / deadzone=21,11 / fast_pskip=0 / chroma_qp_offset=-2 / threads=18 / lookahead_threads=3 / sliced_threads=0 / nr=0 / decimate=1 / interlaced=0 / bluray_compat=0 / constrained_intra=0 / fgo=0 / bframes=9 / b_pyramid=2 / b_adapt=2 / b_bias=0 / direct=3 / weightb=1 / open_gop=0 / weightp=2 / keyint=250 / keyint_min=24 / scenecut=40 / intra_refresh=0 / rc_lookahead=60 / rc=crf / mbtree=0 / crf=15.0000 / qcomp=0.60 / qpmin=0:0:0 / qpmax=69:69:69 / qpstep=4 / vbv_maxrate=62500 / vbv_bufsize=78125 / crf_max=0.0 / nal_hrd=none / filler=0 / ip_ratio=1.40 / pb_ratio=1.30 / aq=3:0.80 / aq-sensitivity=10.00 / aq-factor=1.00:1.00:1.00 / aq2=0 / aq3=0 / zones=7616,7635,crf=13.6/8072,8089,crf=13.6/18662,21000,crf=13.8/22385,24462,crf=13.8/31746,40616,crf=13.8/41308,44539,crf=13.8
Language                    : English
Default                     : Yes
Forced                      : No
Color range                 : Limited
Color primaries             : BT.709
Matrix coefficients         : BT.709

Audio #1
ID                          : 2
Format                      : AC-3
Format/Info                 : Audio Coding 3
Commercial name             : Dolby Digital
Codec ID                    : A_AC3
Duration                    : 1 h 57 min
Bit rate mode               : Constant
Bit rate                    : 384 kb/s
Channel(s)                  : 6 channels
Channel layout              : L R C LFE Ls Rs
Sampling rate               : 48.0 kHz
Frame rate                  : 31.250 FPS (1536 SPF)
Bit depth                   : 16 bits
Compression mode            : Lossy
Stream size                 : 322 MiB (2%)
Title                       : Dub [itunes]
Language                    : Russian
Service kind                : Complete Main
Default                     : Yes
Forced                      : Yes

Audio #2
ID                          : 3
Format                      : DTS
Format/Info                 : Digital Theater Systems
Codec ID                    : A_DTS
Duration                    : 1 h 57 min
Bit rate mode               : Constant
Bit rate                    : 1 510 kb/s
Channel(s)                  : 6 channels
Channel layout              : C L R Ls Rs LFE
Sampling rate               : 48.0 kHz
Frame rate                  : 93.750 FPS (512 SPF)
Bit depth                   : 24 bits
Compression mode            : Lossy
Stream size                 : 1.23 GiB (8%)
Title                       : Original
Language                    : English
Default                     : No
Forced                      : No

Text #1
ID                          : 4
Format                      : UTF-8
Codec ID                    : S_TEXT/UTF8
Codec ID/Info               : UTF-8 Plain Text
Duration                    : 52 min 28 s
Bit rate                    : 3 b/s
Count of elements           : 20
Stream size                 : 1.25 KiB (0%)
Title                       : Forced
Language                    : Russian
Default                     : Yes
Forced                      : Yes

Text #2
ID                          : 5
Format                      : UTF-8
Codec ID                    : S_TEXT/UTF8
Codec ID/Info               : UTF-8 Plain Text
Duration                    : 1 h 56 min
Bit rate                    : 137 b/s
Count of elements           : 2147
Stream size                 : 117 KiB (0%)
Title                       : Full
Language                    : Russian
Default                     : No
Forced                      : No

Text #3
ID                          : 6
Format                      : UTF-8
Codec ID                    : S_TEXT/UTF8
Codec ID/Info               : UTF-8 Plain Text
Duration                    : 1 h 52 min
Bit rate                    : 96 b/s
Count of elements           : 2267
Stream size                 : 79.3 KiB (0%)
Title                       : Full
Language                    : English
Default                     : No
Forced                      : No

Text #4
ID                          : 7
Format                      : UTF-8
Codec ID                    : S_TEXT/UTF8
Codec ID/Info               : UTF-8 Plain Text
Duration                    : 1 h 52 min
Bit rate                    : 104 b/s
Count of elements           : 2404
Stream size                 : 86.0 KiB (0%)
Title                       : SDH
Language                    : English
Default                     : No
Forced                      : No

Menu
00:00:00.000                : en:Chapter 1
00:11:26.519                : en:Chapter 2
00:22:01.903                : en:Chapter 3
00:31:02.443                : en:Chapter 4
00:43:07.668                : en:Chapter 5
00:51:37.969                : en:Chapter 6
01:01:19.842                : en:Chapter 7
01:10:45.616                : en:Chapter 8
01:18:53.395                : en:Chapter 9
01:28:42.900                : en:Chapter 10
01:38:51.842                : en:Chapter 11
01:47:41.663                : en:Chapter 12



Скриншоты:
[+] Всего файлов в раздаче - 1:
What.Men.Want.2019.BDRip.1080p.seleZen.mkv15.02 GB

Показать еще раздачи по запросу чего:
2019-05-17 U Чего хотят мужчины / What Men Want (2019) BDRip 720p от ExKinoRay | iTunes 4.41 GB ↑ 58 ↓ 18
2019-05-16 U Чего хотят мужчины / What Men Want (2019) BDRip от MegaPeer | iTunes 1.41 GB ↑ 421 ↓ 100
2019-05-11 U Чего хотят мужчины / What Men Want (2019) BDRip 1080p | HDRezka Studio 13.44 GB ↑ 37 ↓ 18
2019-05-09 U Чего хотят мужчины / What Men Want (2019) BDRip-AVC от ExKinoRay | HDRezka Studio 2.08 GB ↑ 136 ↓ 45
2019-05-09 U Чего хотят мужчины / What Men Want (2019) BDRip от ExKinoRay | HDRezka Studio 1.45 GB ↑ 178 ↓ 38
2018-04-25 U Мы забыли даже то, чего не знали / We've Forgotten More Than We Ever Knew (2016) WEBRip 1080p | HDrezka Studio 3.29 GB ↑ 42 ↓ 11
2018-04-24 U Мы забыли даже то, чего не знали / We've Forgotten More Than We Ever Knew (2017) WEBRip | HDrezka Studio 1.43 GB ↑ 143 ↓ 65

Отзывы
Зарегистрируйтесь чтобы добавить комментарий.
Обратная связь
Copyleft ©