↑↓Torrent.by
Поиск
Логин: Регистрация
Пароль: Восстановить пароль
Загрузка...

Воин / Warfighter (2018) WEB-DLRip от Portablius | HDRezka Studio

Скачать voin-warfighter-2018-web-dlrip-ot-portablius-hdrezka-studio.torrent
U Магнитная ссылка Размер: 746.54 MB Раздают: 125 Качают: 42 Добавлен: 2019-05-16 20:01:57
Воин / Warfighter (2018) WEB-DLRip от Portablius | HDRezka Studio

Название: Воин
Оригинальное название: Warfighter
Год выхода: 2018
Жанр: Боевик, драма, мелодрама, военный
Режиссер: Джерри Дж. Анджело
В ролях: Джерри Дж. Анджело, Пол Логан, Айзек С. Синглтон мл., Виктория Клер, Джошуа Сантана, Каролина Фиппс, Майкл Кинг, Дэвид Роббинс

О фильме: Расти Виттенбург — солдат специального подразделения военно-морских сил США, страдающий от ночных кошмаров, вызванных посттравматическим стрессовым расстройством. Тяжелое психическое состояние Расти мешает ему сохранять баланс в отношениях с женой Ванессой и маленькой дочерью Оливией. Периодически мужчина погружается в воспоминания о прошлых миссиях и потерянных товарищах, что еще больше осложняет его адаптацию в гражданской среде. Когда возникает необходимость выполнить сложную задачу по спасению американских военнопленных, кошмары Расти начинают проявляться наяву...

Страна: США
Студия: Fire Born Studios, TLG Motion Pictures
Продолжительность: 01:45:32
Перевод: Профессиональный (многоголосый, закадровый) | HDRezka Studio
Субтитры: нет

Файл
Кодек: XviD
Качество: WEB-DLRip
Видео: 720x304 (2.37:1), 24.000 fps, XviD build 73 ~851 kbps avg, 0.16 bit/pixel
Звук: 48 kHz, MPEG Layer 3, 2 ch, ~128.00 kbps avg


[+] MediaInfo
General
Complete name               : Warfighter.2018.WEB-DLRip.Portablius.avi
Format                      : AVI
Format/Info                 : Audio Video Interleave
File size                   : 747 MiB
Duration                    : 1 h 45 min
Overall bit rate            : 989 kb/s
Writing application         : VirtualDubMod 1.5.10.3 | www.virtualdub-fr.org || (build 2550/release)
Writing library             : VirtualDubMod build 2550/release

Video
ID                          : 0
Format                      : MPEG-4 Visual
Format profile              : Advanced Simple@L5
Format settings             : BVOP1 / Custom Matrix
Format settings, BVOP       : 1
Format settings, QPel       : No
Format settings, GMC        : No warppoints
Format settings, Matrix     : Custom
Codec ID                    : XVID
Codec ID/Hint               : XviD
Duration                    : 1 h 45 min
Bit rate                    : 852 kb/s
Width                       : 720 pixels
Height                      : 304 pixels
Display aspect ratio        : 2.35:1
Frame rate                  : 24.000 FPS
Color space                 : YUV
Chroma subsampling          : 4:2:0
Bit depth                   : 8 bits
Scan type                   : Progressive
Compression mode            : Lossy
Bits/(Pixel*Frame)          : 0.162
Stream size                 : 643 MiB (86%)
Writing library             : XviD 73

Audio
ID                          : 1
Format                      : MPEG Audio
Format version              : Version 1
Format profile              : Layer 3
Codec ID                    : 55
Codec ID/Hint               : MP3
Duration                    : 1 h 45 min
Bit rate mode               : Constant
Bit rate                    : 128 kb/s
Channel(s)                  : 2 channels
Sampling rate               : 48.0 kHz
Frame rate                  : 41.667 FPS (1152 SPF)
Compression mode            : Lossy
Stream size                 : 96.6 MiB (13%)
Alignment                   : Aligned on interleaves
Interleave, duration        : 42  ms (1.00 video frame)
Interleave, preload duratio : 504  ms
Writing library             : LAME3.99r
Encoding settings           : -m s -V 4 -q 2 -lowpass 17 -b 128




Скриншоты:
[+] Всего файлов в раздаче - 1:
Warfighter.2018.WEB-DLRip.Portablius.avi746.54 MB

Показать еще раздачи по запросу воин:
2019-06-15 U Воин / Warrior [S01] (2019) WEB-DLRip | LostFilm 9.26 GB ↑ 36 ↓ 54
2019-06-10 U Воин / Warrior [S01] (2019) WEB-DL 1080p | Кириллица 23.31 GB ↑ 47 ↓ 57
2019-06-10 U Воин / Warrior [S01] (2019) WEB-DLRip от Scarabey | Кириллица 7.48 GB ↑ 66 ↓ 116
2019-06-09 U Воин / Warrior [S01] (2019) WEB-DL 720p | Кириллица 11.92 GB ↑ 232 ↓ 755
2019-06-02 U Воин / Warrior [01x01-09 из 10] (2019) WEB-DL 1080p | Кириллица 20.75 GB ↑ 33 ↓ 209
2019-05-26 U Воин / Warrior [01x01-08 из 10] (2019) WEB-DL 1080p | Кириллица 18.31 GB ↑ 42 ↓ 217
2019-05-21 U Воин / Warrior [01x01-07 из 10] (2019) WEB-DLRip | LostFilm 6.40 GB ↑ 33 ↓ 49

Отзывы
Зарегистрируйтесь чтобы добавить комментарий.
Обратная связь
Copyleft ©