↑↓Torrent.by
Поиск
Логин: Регистрация
Пароль: Восстановить пароль
Загрузка...

Бэтмен против Черепашек-ниндзя / Batman vs. Teenage Mutant Ninja Turtles (2019) WEB-DL 1080p | Sub

Скачать betmen-protiv-cherepashek-nindzya-batman-vs-teenage-mutant-ninja-turtles-2019-web-dl-1080p-sub.torrent
U Магнитная ссылка Размер: 3.24 GB Раздают: 89 Качают: 27 Добавлен: 2019-05-16 20:02:06
Бэтмен против Черепашек-ниндзя / Batman vs. Teenage Mutant Ninja Turtles (2019) WEB-DL 1080p | Sub

Бэтмен против Черепашек-ниндзя / Batman vs. Teenage Mutant Ninja Turtles

Страна: США
Производство: DC Entertainment, Warner Bros. Animation, Nickelodeon, Dr. Movie
Год выпуска: 2019
Жанр:  мультфильм, фантастика, фэнтези, боевик, комедия, криминал, приключения
Продолжительность: 01:27:07

Режиссер: Джейк Касторена / Jake Castorena
Авторы сценария: Марли Халперн-Грэйзер, Боб Кейн, Билл Фингер
Роли озвучивали: Трой Бэйкер, Эрик Бауза, Даррен Крисс, Кайл Муни, Барон Вон, Карлос Аласраки, Кэс Анвар, Рэйчел Блум, Джон Ди Маджио

Описание: Бэтмен объединяется с Черепашками-ниндзя, чтобы остановить Шредера и Ра’с аль Гула...

Перевод: отсутствует | субтитры
Субтитры: русские (от UGN SUBZ Translators)

Качество: WEB-DL 1080p | FGT
Формат: МКV
Видео кодек: AVC
Аудио кодек: АС3
Видео: 1912x1072 (16:9), 23.976 fps, MPEG-4 AVC ~4 828 kbps avg
Аудио: 48.0 kHz, AC3 Dolby Digital, 3/2 (L,C,R,l,r) + LFE ch, ~384 kbps | ENG
Формат субтитров: UTF-8 Plain Text

Дата премьеры (мир): 31 марта 2019


[+] Media Info
General
Unique ID                      : 243347017503480075570811916690499385648 (0xB712EE482B88FF0EA6BF9B6E89F53930)
Complete name                  : Batman.vs.Teenage.Mutant.Ninja.Turtles.2019.1080p.WEB-DL.DD5.1.H264-FGT_RusSub.mkv
Format                         : Matroska
Format version                 : Version 4 / Version 2
File size                      : 3.24 GiB
Duration                       : 1h 27mn
Overall bit rate               : 5 318 Kbps
Movie name                     : Batman.vs.Teenage.Mutant.Ninja.Turtles.2019.1080p.WEB-DL.DD5.1.H264-FGT
Encoded date                   : UTC 2019-05-16 03:25:57
Writing application            : mkvmerge v8.3.0 ('Over the Horizon') 32bit
Writing library                : libebml v1.3.1 + libmatroska v1.4.2
DURATION                       : 01:26:14.408000000
NUMBER_OF_FRAMES               : 1032
NUMBER_OF_BYTES                : 59596
_STATISTICS_WRITING_APP        : mkvmerge v8.3.0 ('Over the Horizon') 32bit
_STATISTICS_WRITING_DATE_UTC   : 2019-05-16 03:25:57
_STATISTICS_TAGS               : BPS DURATION NUMBER_OF_FRAMES NUMBER_OF_BYTES

Video
ID                             : 1
Format                         : AVC
Format/Info                    : Advanced Video Codec
Format profile                 : High@L4
Format settings, CABAC         : Yes
Format settings, ReFrames      : 4 frames
Codec ID                       : V_MPEG4/ISO/AVC
Duration                       : 1h 27mn
Bit rate                       : 4 828 Kbps
Width                          : 1 912 pixels
Height                         : 1 072 pixels
Display aspect ratio           : 16:9
Frame rate mode                : Constant
Frame rate                     : 23.976 fps
Color space                    : YUV
Chroma subsampling             : 4:2:0
Bit depth                      : 8 bits
Scan type                      : Progressive
Bits/(Pixel*Frame)             : 0.098
Stream size                    : 2.94 GiB (91%)
Title                          : Batman.vs.Teenage.Mutant.Ninja.Turtles.2019.1080p.WEB-DL.DD5.1.H264-FGT
Language                       : English
Default                        : Yes
Forced                         : No
Color range                    : Limited
Color primaries                : BT.709
Transfer characteristics       : BT.709
Matrix coefficients            : BT.709

Audio
ID                             : 2
Format                         : AC-3
Format/Info                    : Audio Coding 3
Mode extension                 : CM (complete main)
Format settings, Endianness    : Big
Codec ID                       : A_AC3
Duration                       : 1h 27mn
Bit rate mode                  : Constant
Bit rate                       : 384 Kbps
Channel(s)                     : 6 channels
Channel positions              : Front: L C R, Side: L R, LFE
Sampling rate                  : 48.0 KHz
Compression mode               : Lossy
Delay relative to video        : -43ms
Stream size                    : 239 MiB (7%)
Title                          : Original
Language                       : English
Default                        : Yes
Forced                         : No

Text
ID                             : 3
Format                         : UTF-8
Codec ID                       : S_TEXT/UTF8
Codec ID/Info                  : UTF-8 Plain Text
Title                          : UGN SUBZ Translators
Language                       : Russian
Default                        : Yes
Forced                         : No

Menu
00:00:00.000                   : en:1
00:09:08.000                   : en:2
00:21:13.000                   : en:3
00:32:21.000                   : en:4
00:41:15.000                   : en:5
00:50:38.000                   : en:6
01:00:42.000                   : en:7
01:11:20.000                   : en:8
01:23:55.000                   : en:9



Скриншоты:
[+] Всего файлов в раздаче - 1:
Batman.vs.Teenage.Mutant.Ninja.Turtles.2019.1080p.WEB-DL.DD5.1.H264-FGT_RusSub.mkv3.24 GB

Показать еще раздачи по запросу бэтмен:
2019-06-09 U Бэтмен против Черепашек-ниндзя / Batman vs. Teenage Mutant Ninja Turtles (2019) WEB-DLRip от Portablius | P 743.16 MB ↑ 30 ↓ 6
2019-06-08 U Бэтмен против Черепашек-ниндзя / Batman vs. Teenage Mutant Ninja Turtles (2019) WEB-DL 1080p от NewSeriesHD | P, L 3.83 GB ↑ 45 ↓ 11
2019-06-04 U Бэтмен против Черепашек-ниндзя / Batman vs. Teenage Mutant Ninja Turtles (2019) WEB-DL 1080p от NewSeriesHD | P, L 3.44 GB ↑ 72 ↓ 15
2019-05-27 U Бэтмен против Черепашек-ниндзя / Batman vs. Teenage Mutant Ninja Turtles (2019) WEB-DLRip | ZM-SHOW 1.27 GB ↑ 95 ↓ 16
2019-05-26 U Бэтмен против Черепашек-ниндзя / Batman vs. Teenage Mutant Ninja Turtles (2019) WEB-DL 1080p | ZM-SHOW 3.09 GB ↑ 173 ↓ 49
2018-06-20 U Бэтмен: Убийственная шутка / Batman: The Killing Joke (2016) BDRip от ExKinoRay | D 1.46 GB ↑ 67 ↓ 12
2018-04-30 U Бэтмен-ниндзя / Batman Ninja (2018) WEB-DLRip 720p | Flarrow Films 3.22 GB ↑ 91 ↓ 29

Отзывы
Зарегистрируйтесь чтобы добавить комментарий.
Обратная связь
Copyleft ©