↑↓Torrent.by
Поиск
Логин: Регистрация
Пароль: Восстановить пароль
Загрузка...

Смертельная тропа / Body at Brighton Rock (2019) WEB-DLRip | HDRezka Studio

Скачать smertelnaya-tropa-body-at-brighton-rock-2019-web-dlrip-hdrezka-studio.torrent
U Магнитная ссылка Размер: 1.46 GB Раздают: 60 Качают: 31 Добавлен: 2019-05-17 07:43:30
Смертельная тропа / Body at Brighton Rock (2019) WEB-DLRip | HDRezka Studio

Смертельная тропа / Body at Brighton Rock

Страна: США
Производство: Protostar Pictures, Soapbox Films
Год выпуска: 2019
Жанр:  триллер
Продолжительность: 01:27:20

Режиссер: Роксанна Бенжамин
В ролях: Карина Фонтес, Кэйси Адамс, Эмили Альтхаус, Миранда Бэйли, Мартин Спэньер, Мэтт Питерс, Сьюзэн Бурк, Джон Гец, Джон Ф. Бич

Описание: Молодая смотрительница горного заповедника отправляется на плановый обход парка. Отклонившись от маршрута, она находит тело мужчины. В силу обстоятельств девушка оказывается отрезана от связи и не может покинуть потенциальное место преступления. Ждать помощи неоткуда, а из чащи появляются незваные гости…

Перевод: Профессиональный (многоголосый, закадровый) | HDRezka Studio
Субтитры: нет

Качество: WEB-DLRip
Формат: AVI
Видео кодек: XviD
Аудио кодек: АС3
Видео: 704x384 (1.85:1), 23.976 fps, XviD build 73 ~2 185 kbps avg
Аудио №1: 48.0 kHz, AC3 Dolby Digital, 2/0 (L,R) ch, ~192 kbps

Дата премьеры (мир): 8 марта 2019
Дата премьеры (РФ): 21 мая 2019, «Вольга»

Релиз от: порошков


[+] Media Info
General
Формат                                   : AVI
Формат/Информация                        : Audio Video Interleave
Размер файла                             : 1,46 Гбайт
Продолжительность                        : 1 ч. 27 м.
Общий поток                              : 2386 Кбит/сек
Название фильма                          : Смертельная тропа_2019_WEB-DLRip
Программа кодирования                    : VirtualDubMod 1.5.10.3 | (build 2550/release)
Авторское право                          : порошков

Видео
Идентификатор                            : 0
Формат                                   : MPEG-4 Visual
Профиль формата                          : Advanced Simple@L5
Настройки формата                        : BVOP1 / Custom Matrix
Параметр BVOP формата                    : 1
Параметр QPel формата                    : Нет
Параметр GMC формата                     : Без точки перехода
Параметр матрицы формата                 : Выборочная
Идентификатор кодека                     : XVID
Идентификатор кодека/Подсказка           : XviD
Продолжительность                        : 1 ч. 27 м.
Битрейт                                  : 2185 Кбит/сек
Ширина                                   : 704 пикселя
Высота                                   : 384 пикселя
Соотношение сторон                       : 1,85:1
Частота кадров                           : 23,976 (24000/1001) кадра/сек
Цветовое пространство                    : YUV
Субдискретизация насыщенности            : 4:2:0
Битовая глубина                          : 8 бит
Тип развёртки                            : Прогрессивная
Метод сжатия                             : С потерями
Бит/(Пиксели*Кадры)                      : 0.337
Размер потока                            : 1,33 Гбайт (92%)
Библиотека кодирования                   : XviD 73

Аудио
Идентификатор                            : 1
Формат                                   : AC-3
Формат/Информация                        : Audio Coding 3
Коммерческое название                    : Dolby Digital
Идентификатор кодека                     : 2000
Продолжительность                        : 1 ч. 27 м.
Вид битрейта                             : Постоянный
Битрейт                                  : 192 Кбит/сек
Каналы                                   : 2 канала
ChannelLayout                            : L R
Частота                                  : 48,0 КГц
Частота кадров                           : 31,250 кадров/сек (1536 SPF)
Битовая глубина                          : 16 бит
Метод сжатия                             : С потерями
Размер потока                            : 120 Мбайт (8%)
Выравнивание                             : Разделение по промежуткам
Продолжительность промежутка             : 42  мс. (1,00 видеокадр)
Время предзагрузки промежутка            : 500  мс.



Скриншоты:
[+] Всего файлов в раздаче - 1:
Смертельная тропа_2019_WEB-DLRip.avi1.46 GB

Показать еще раздачи по запросу смертельная:
2019-05-26 U Смертельная битва: Наследие / Mortal Kombat: Legacy [S01-02] (2011-2013) WEB-DLRip 720p | LostFilm 5.68 GB ↑ 44 ↓ 29
2019-05-19 U Смертельная тропа / Body at Brighton Rock (2019) WEB-DLRip от Portablius | HDRezka Studio 746.10 MB ↑ 69 ↓ 9
2019-05-18 U Смертельная тропа / Body at Brighton Rock (2019) WEBRip 720p | HDRezka Studio 2.89 GB ↑ 49 ↓ 12
2019-05-17 U Смертельная тропа / Body at Brighton Rock (2019) WEB-DLRip-AVC от ExKinoRay | HDRezka Studio 744.17 MB ↑ 28 ↓ 24
2019-05-16 U Смертельная тропа / Body at Brighton Rock (2019) WEB-DL 1080p | HDRezka Studio 5.73 GB ↑ 71 ↓ 96
2019-03-23 U Мое прекрасное тело: Смертельная мода на здоровье (2019) SATRip 1.33 GB ↑ 87 ↓ 20
2019-02-21 U Аладдин и смертельная лампа / Aladdin and the Death Lamp (2012) WEB-DL 720p | L1 2.74 GB ↑ 231 ↓ 82

Отзывы
Зарегистрируйтесь чтобы добавить комментарий.
Обратная связь
Copyleft ©