↑↓Torrent.by
Поиск
Логин: Регистрация
Пароль: Восстановить пароль
Загрузка...

Пушистый шпион / Marnies Welt (2018) WEB-DLRip | iTunes

Скачать pushistyy-shpion-marnies-welt-2018-web-dlrip-itunes.torrent
U Магнитная ссылка Размер: 1.46 GB Раздают: 88 Качают: 28 Добавлен: 2019-05-17 07:44:02
Пушистый шпион / Marnies Welt (2018) WEB-DLRip | iTunes

Пушистый шпион / Marnie's World / Marnies Welt

Страна: Германия  Бельгия
Производство: Grid Animation, Philm CGI, Scope Pictures, Seven Pictures, UFA Fiction
Год выпуска: 2018
Жанр:  мультфильм, приключения, семейный
Продолжительность: 01:32:03

Режиссеры: Вольфганг Лауэнштайн, Кристоф Лауэнштайн
Авторы сценария: Вольфганг Лауэнштайн, Кристоф Лауэнштайн
Роли озвучивали: Эрик Борнер, Александра Нелдель, Аксель Праль

Описание: Избалованная рыжая кошечка Марни живёт в доме со своей хозяйкой в тепле и уюте и в ус не дует. Но ее жизнь радикально меняется, когда она становится жертвой грабителей-преступников, которые отправляют ее в коробке в другой город. В дороге коробка теряется и Марни оказывается где-то в глухой деревне, один на один с реальной жизнью. Она встречает Пса, Петуха и Осла и тут начинаются приключения… Марни и ее новым друзьям предстоит найти того, кто стоит за загадочными ограблениями в городе и обезвредить эту банду...

Перевод: Профессиональный (полное дублирование) | iTunes
Субтитры: нет

Качество: WEB-DLRip
Формат: AVI
Видео кодек: XviD
Аудио кодек: АС3
Видео: 704x384 (1.85:1), 24.000 fps, XviD build 73 ~1 871 kbps avg
Аудио: 48.0 kHz, AC3 Dolby Digital, 3/2 (L,C,R,l,r) + LFE ch, ~384 kbps

Дата премьеры (мир): 13 июня 2018
Дата премьеры (РФ): 18 апреля 2019, «Наше Кино»

Релиз от: порошков


[+] Media Info
General
Формат                                   : AVI
Формат/Информация                        : Audio Video Interleave
Размер файла                             : 1,46 Гбайт
Продолжительность                        : 1 ч. 32 м.
Общий поток                              : 2264 Кбит/сек
Название фильма                          : Пушистый шпион_2018_WEB-DLRip
Программа кодирования                    : VirtualDubMod 1.5.10.3 | (build 2550/release)
Авторское право                          : порошков

Видео
Идентификатор                            : 0
Формат                                   : MPEG-4 Visual
Профиль формата                          : Advanced Simple@L5
Настройки формата                        : BVOP1 / Custom Matrix
Параметр BVOP формата                    : 1
Параметр QPel формата                    : Нет
Параметр GMC формата                     : Без точки перехода
Параметр матрицы формата                 : Выборочная
Идентификатор кодека                     : XVID
Идентификатор кодека/Подсказка           : XviD
Продолжительность                        : 1 ч. 32 м.
Битрейт                                  : 1871 Кбит/сек
Ширина                                   : 704 пикселя
Высота                                   : 384 пикселя
Соотношение сторон                       : 1,85:1
Частота кадров                           : 24,000 кадра/сек
Цветовое пространство                    : YUV
Субдискретизация насыщенности            : 4:2:0
Битовая глубина                          : 8 бит
Тип развёртки                            : Прогрессивная
Метод сжатия                             : С потерями
Бит/(Пиксели*Кадры)                      : 0.288
Размер потока                            : 1,20 Гбайт (83%)
Библиотека кодирования                   : XviD 73

Аудио
Идентификатор                            : 1
Формат                                   : AC-3
Формат/Информация                        : Audio Coding 3
Коммерческое название                    : Dolby Digital
Идентификатор кодека                     : 2000
Продолжительность                        : 1 ч. 32 м.
Вид битрейта                             : Постоянный
Битрейт                                  : 384 Кбит/сек
Каналы                                   : 6 каналов
ChannelLayout                            : L R C LFE Ls Rs
Частота                                  : 48,0 КГц
Частота кадров                           : 31,250 кадров/сек (1536 SPF)
Битовая глубина                          : 16 бит
Метод сжатия                             : С потерями
Размер потока                            : 253 Мбайт (17%)
Выравнивание                             : Разделение по промежуткам
Продолжительность промежутка             : 42  мс. (1,00 видеокадр)
Время предзагрузки промежутка            : 500  мс.



Скриншоты:
[+] Всего файлов в раздаче - 1:
Пушистый шпион_2018_WEB-DLRip.avi1.46 GB

Похожие раздачи по запросу - пушистый:
2019-05-19 U Пушистый шпион / Marnies Welt (2018) WEB-DLRip от Portablius | iTunes 748.71 MB ↑ 103 ↓ 30
2019-05-17 U Пушистый шпион / Marnies Welt (2018) WEB-DL 1080p | iTunes 3.58 GB ↑ 206 ↓ 95
2014-09-22 U Мой белый и пушистый (2013) HDTVRip от Files-x 1К1.37 GB ↑ 345 ↓ 140
2013-12-22 U Мой белый и пушистый / Мой милый, белый, пушистый (2013) SATRip 1.47 GB ↑ 27 ↓ 0

Отзывы
Зарегистрируйтесь чтобы добавить комментарий.
Обратная связь
Copyleft ©