↑↓Torrent.by
Поиск
Логин: Регистрация
Пароль: Восстановить пароль
Загрузка...

Стальная страна / Steel Country (2018) WEB-DLRip от Portablius | HDRezka Studio

Скачать stalnaya-strana-steel-country-2018-web-dlrip-ot-portablius-hdrezka-studio.torrent
U Магнитная ссылка Размер: 745.74 MB Раздают: 52 Качают: 1 Добавлен: 2019-05-17 07:44:19
Стальная страна / Steel Country (2018) WEB-DLRip от Portablius | HDRezka Studio

Название: Стальная страна
Оригинальное название: Steel Country (A Dark Place)
Год выхода: 2018
Жанр: Триллер, детектив
Режиссер: Саймон Феллоуз
В ролях: Эндрю Скотт, Денис Гоф, Дж.Д. Эвермор, Катрин Дайер, Брона Во, Грифф Ферст, Сандра Эллис Лэфферти, Кристиан Финлейсон, Джаред Банкенс, Кори Скотт Аллен

О фильме: Когда мальчик пропадает без вести на окраине сонного городка в штатах, местный мусорщик Дональд решает разобраться с этим делом сам. Работая над этим он сталкивается с враждебностью со стороны полицейских и всех остальных, когда начинает задавать неудобные вопросы об обстоятельствах жизни мертвого ребенка. Донни совсем не умный и не хитрый, поэтому сразу весь город - и скорбящие родители - узнают, о том, что он ищет правду. Вскоре враждебность превращается в прямые угрозы, которые только усиливают его подозрение, что в этом инциденте есть какая-то скрытая, мрачная правда.

Страна: Великобритания
Студия: Bedlam Productions
Продолжительность: 01:29:38
Перевод: Профессиональный (многоголосый, закадровый) | HDRezka Studio
Субтитры: нет

Релиз Без Рекламы!

Файл
Кодек: XviD
Качество: WEB-DLRip
Видео: 720x304 (2.37:1), 23.976 fps, XviD build 73 ~1025 kbps avg, 0.20 bit/pixel
Звук: 48 kHz, MPEG Layer 3, 2 ch, ~128.00 kbps avg


[+] MediaInfo
General
Complete name               : Steel.Country.2018.WEB-DLRip.Portablius.avi
Format                      : AVI
Format/Info                 : Audio Video Interleave
File size                   : 746 MiB
Duration                    : 1 h 29 min
Overall bit rate            : 1 163 kb/s
Writing application         : VirtualDubMod 1.5.10.3 | www.virtualdub-fr.org || (build 2550/release)
Writing library             : VirtualDubMod build 2550/release

Video
ID                          : 0
Format                      : MPEG-4 Visual
Format profile              : Advanced Simple@L5
Format settings             : BVOP1 / Custom Matrix
Format settings, BVOP       : 1
Format settings, QPel       : No
Format settings, GMC        : No warppoints
Format settings, Matrix     : Custom
Codec ID                    : XVID
Codec ID/Hint               : XviD
Duration                    : 1 h 29 min
Bit rate                    : 1 026 kb/s
Width                       : 720 pixels
Height                      : 304 pixels
Display aspect ratio        : 2.35:1
Frame rate                  : 23.976 (24000/1001) FPS
Color space                 : YUV
Chroma subsampling          : 4:2:0
Bit depth                   : 8 bits
Scan type                   : Progressive
Compression mode            : Lossy
Bits/(Pixel*Frame)          : 0.195
Stream size                 : 658 MiB (88%)
Writing library             : XviD 73

Audio
ID                          : 1
Format                      : MPEG Audio
Format version              : Version 1
Format profile              : Layer 3
Codec ID                    : 55
Codec ID/Hint               : MP3
Duration                    : 1 h 29 min
Bit rate mode               : Constant
Bit rate                    : 128 kb/s
Channel(s)                  : 2 channels
Sampling rate               : 48.0 kHz
Frame rate                  : 41.667 FPS (1152 SPF)
Compression mode            : Lossy
Stream size                 : 82.1 MiB (11%)
Alignment                   : Aligned on interleaves
Interleave, duration        : 42  ms (1.00 video frame)
Interleave, preload duratio : 504  ms
Writing library             : LAME3.99r
Encoding settings           : -m s -V 4 -q 2 -lowpass 17 -b 128




Скриншоты:
[+] Всего файлов в раздаче - 1:
Steel.Country.2018.WEB-DLRip.Portablius.avi745.74 MB

Похожие раздачи по запросу - стальная:
2019-07-25 U Стальная страна / Steel Country (2018) HDRip-AVC | HDRezka Studio 1.78 GB ↑ 48 ↓ 7
2019-05-12 U Стальная страна / Steel Country (2018) WEB-DLRip-AVC от ExKinoRay | HDRezka Studio 744.08 MB ↑ 117 ↓ 17
2019-05-11 U Стальная страна / Steel Country (2018) WEB-DL 1080p от ExKinoRay | HDRezka Studio 3.28 GB ↑ 147 ↓ 66
2019-05-11 U Стальная страна / Steel Country (2018) WEB-DLRip от ExKinoRay | HDRezka Studio 1.35 GB ↑ 246 ↓ 40

Отзывы
Зарегистрируйтесь чтобы добавить комментарий.
Обратная связь
Copyleft ©