↑↓Torrent.by
Поиск
Логин: Регистрация
Пароль: Восстановить пароль
Загрузка...

Смертельная тропа / Body at Brighton Rock (2019) WEB-DLRip-AVC от ExKinoRay | HDRezka Studio

Скачать smertelnaya-tropa-body-at-brighton-rock-2019-web-dlrip-avc-ot-exkinoray-hdrezka-studio.torrent
U Магнитная ссылка Размер: 744.17 MB Раздают: 28 Качают: 24 Добавлен: 2019-05-17 20:08:01
Смертельная тропа / Body at Brighton Rock (2019) WEB-DLRip-AVC от ExKinoRay | HDRezka Studio

Название: Смертельная тропа
Оригинальное название: Body at Brighton Rock
Год выхода: 2019
Жанр: Триллер
Режиссер: Роксанна Бенжамин
В ролях: Карина Фонтес, Кэйси Адамс, Эмили Альтхаус, Миранда Бэйли, Мартин Спэньер, Мэтт Питерс, Сьюзэн Бурк, Джон Гец, Джон Ф. Бич

О фильме:
В центре сюжета — молодая смотрительница заповедника, расположенного в горах. Она отправляется исследовать плановый обход парка. Разумеется, совершенно случайно она отклоняется от намеченного маршрута, а впоследствии натыкается на тело мужчины. В силу многочисленных обстоятельств девушка оказывается наедине с дикой местностью без связи и помощи, из-за чего не может покинуть потенциальное место преступления.

Страна: США
Студия: Protostar Pictures, Soapbox Films
Продолжительность: 01:27:20
Перевод: Профессиональный (многоголосый, закадровый) | HDRezka Studio

Файл
Формат: MKV
Качество: WEB-DLRip-AVC
Видео: MPEG-4 AVC, 784x424, - 1116 Кбит/с
Аудио:  AAC-HE, 2 ch, - 76 Кбит/с
Субтитры: Нет


[+] MI
Общее
Уникальный идентификатор : 263870929860536903615230272888793103623 (0xC683B14975EFEAD9EFF8012709867D07)
Полное имя : D:MOVIESBody.at.Brighton.Rock.2019.ExKinoRay.mkv
Формат : Matroska
Версия формата : Version 4 / Version 2
Размер файла : 744 Мбайт
Продолжительность : 1 ч. 27 м.
Общий поток : 1191 Кбит/сек
Дата кодирования : UTC 2019-05-17 04:14:19
Программа кодирования : mkvmerge v32.0.0 ('Astral Progressions') 64-bit
Библиотека кодирования : libebml v1.3.7 + libmatroska v1.5.0

Видео
Идентификатор : 1
Формат : AVC
Формат/Информация : Advanced Video Codec
Профиль формата : High@L4.1
Параметр CABAC формата : Да
Параметр RefFrames формата : 12 кадров
Идентификатор кодека : V_MPEG4/ISO/AVC
Продолжительность : 1 ч. 27 м.
Битрейт : 1116 Кбит/сек
Ширина : 784 пикселя
Высота : 424 пикселя
Соотношение сторон : 1,85:1
Режим частоты кадров : Постоянный
Частота кадров : 23,976 (24000/1001) кадра/сек
Цветовое пространство : YUV
Субдискретизация насыщенности : 4:2:0
Битовая глубина : 8 бит
Тип развёртки : Прогрессивная
Бит/(Пиксели*Кадры) : 0.140
Размер потока : 696 Мбайт (93%)
Библиотека кодирования : x264 core 152 r2851kMod ba24899
Настройки программы : cabac=1 / ref=12 / deblock=1:-3:-3 / analyse=0x3:0x133 / me=umh / subme=10 / psy=1 / fade_compensate=0.00 / psy_rd=1.00:0.14 / mixed_ref=1 / me_range=32 / chroma_me=1 / trellis=2 / 8x8dct=1 / cqm=0 / deadzone=21,11 / fast_pskip=0 / chroma_qp_offset=-3 / threads=6 / lookahead_threads=1 / sliced_threads=0 / nr=0 / decimate=0 / interlaced=0 / bluray_compat=0 / constrained_intra=0 / bframes=12 / b_pyramid=2 / b_adapt=2 / b_bias=0 / direct=3 / weightb=1 / open_gop=0 / weightp=2 / keyint=240 / keyint_min=23 / scenecut=40 / intra_refresh=0 / rc_lookahead=40 / rc=2pass / mbtree=1 / bitrate=1116 / ratetol=1.0 / qcomp=0.60 / qpmin=0 / qpmax=69 / qpstep=4 / cplxblur=20.0 / qblur=0.5 / ip_ratio=1.40 / aq=3:1.00
Default : Да
Forced : Нет

Аудио
Идентификатор : 2
Формат : AAC
Формат/Информация : Advanced Audio Codec
Профиль формата : HE-AAC / LC
Идентификатор кодека : A_AAC
Продолжительность : 1 ч. 27 м.
Битрейт : 76,0 Кбит/сек
Каналы : 2 канала
Расположение каналов : Front: L R
Частота : 48,0 КГц / 24,0 КГц
Частота кадров : 23,438 кадра/сек (1024 SPF)
Метод сжатия : С потерями
Задержка видео : 31 мс.
Размер потока : 47,5 Мбайт (6%)
Язык : Russian
Default : Да
Forced : Нет



Скриншоты:
[+] Всего файлов в раздаче - 1:
Body.at.Brighton.Rock.2019.ExKinoRay.mkv744.17 MB

Показать еще раздачи по запросу смертельная:
2019-05-26 U Смертельная битва: Наследие / Mortal Kombat: Legacy [S01-02] (2011-2013) WEB-DLRip 720p | LostFilm 5.68 GB ↑ 44 ↓ 29
2019-05-19 U Смертельная тропа / Body at Brighton Rock (2019) WEB-DLRip от Portablius | HDRezka Studio 746.10 MB ↑ 68 ↓ 9
2019-05-18 U Смертельная тропа / Body at Brighton Rock (2019) WEBRip 720p | HDRezka Studio 2.89 GB ↑ 49 ↓ 12
2019-05-17 U Смертельная тропа / Body at Brighton Rock (2019) WEB-DLRip | HDRezka Studio 1.46 GB ↑ 60 ↓ 31
2019-05-16 U Смертельная тропа / Body at Brighton Rock (2019) WEB-DL 1080p | HDRezka Studio 5.73 GB ↑ 71 ↓ 96
2019-03-23 U Мое прекрасное тело: Смертельная мода на здоровье (2019) SATRip 1.33 GB ↑ 87 ↓ 20
2019-02-21 U Аладдин и смертельная лампа / Aladdin and the Death Lamp (2012) WEB-DL 720p | L1 2.74 GB ↑ 224 ↓ 82

Отзывы
Зарегистрируйтесь чтобы добавить комментарий.
Обратная связь
Copyleft ©