↑↓Torrent.by
Поиск
Логин: Регистрация
Пароль: Восстановить пароль
Загрузка...

Смертельная тропа / Body at Brighton Rock (2019) WEBRip 720p | HDRezka Studio

Скачать smertelnaya-tropa-body-at-brighton-rock-2019-webrip-720p-hdrezka-studio.torrent
U Магнитная ссылка Размер: 2.89 GB Раздают: 49 Качают: 12 Добавлен: 2019-05-18 05:39:05
Смертельная тропа / Body at Brighton Rock (2019) WEBRip 720p | HDRezka Studio

Название: Смертельная тропа
Оригинальное название: Body at Brighton Rock
Год выхода: 2019
Жанр: Триллер
Режиссер: Роксанна Бенжамин
В ролях: Карина Фонтес, Кэйси Адамс, Эмили Альтхаус, Миранда Бэйли, Мартин Спэньер, Мэтт Питерс, Сьюзэн Бурк, Джон Гец, Броди Рид, Джон Ф. Бич

О фильме:
Во время очередного планового обхода молодая смотрительница по имени Вэнди отклоняется от маршрута и заходит в самую глушь горного заповедника. Но досада от такой нелепой ситуации быстро сменяется ужасом после того, как она замечает труп мужчины. Связавшись по рации со своими коллегами, она получает приказ оставаться на месте возможного преступления до прибытия помощи, не подозревая, какие опасности могут таить в себе эти живописные края. Очень скоро вынужденное одиночество начинает угнетать, а впоследствии и откровенно пугать главную героиню, совершенно неподготовленную к подобным обстоятельствам.

Страна: США
Студия: SoapBox Films, ProtoStar Pictures
Продолжительность: 01:27:20
Перевод: Профессиональный многоголосый | HDRezka Studio

Файл
Кодек: AVC
Качество: WEBRip 720p
Видео: MPEG-4 AVC, 3900 Kбит/с, 1280x688, 23.976 кадр/с
Звук: Без Рекламы!
Аудио #1: Русский (АС3, 2ch, 192 Кбит/с, 48.0 KHz) Профессиональный (многоголосый, закадровый) HDRezka Studio
Аудио #2: Английский (E-AC3, 6ch, 640 Кбит/с, 48.0 KHz)
Субтитры: Aнглийские (*srt)
Трейлер




[+] MediaInfo

General
Unique ID                      : 182881502216885109049546832846586955242 (0x8995B236311CE9C682C7443B4D98C5EA)
Complete name                  : Body.at.Brighton.Rock.2019.WEBRip.720p.mkv
Format                         : Matroska
Format version                 : Version 4
File size                      : 2.89 GiB
Duration                       : 1 h 27 min
Overall bit rate               : 4 731 kb/s
Encoded date                   : UTC 2019-05-17 10:50:42
Writing application            : mkvmerge v7.1.0 ('Good Love') 64bit built on Jul 27 2014 13:06:55
Writing library                : libebml v1.3.0 + libmatroska v1.4.1

Video
ID                             : 1
Format                         : AVC
Format/Info                    : Advanced Video Codec
Format profile                 : High@L4.1
Format settings                : CABAC / 9 Ref Frames
Format settings, CABAC         : Yes
Format settings, ReFrames      : 9 frames
Codec ID                       : V_MPEG4/ISO/AVC
Duration                       : 1 h 27 min
Bit rate                       : 3 900 kb/s
Width                          : 1 280 pixels
Height                         : 688 pixels
Display aspect ratio           : 1.85:1
Frame rate mode                : Constant
Frame rate                     : 23.976 (24000/1001) FPS
Color space                    : YUV
Chroma subsampling             : 4:2:0
Bit depth                      : 8 bits
Scan type                      : Progressive
Bits/(Pixel*Frame)             : 0.185
Stream size                    : 2.38 GiB (82%)
Writing library                : x264 core 148 r2638 7599210
Encoding settings              : cabac=1 / ref=9 / deblock=1:-2:-2 / analyse=0x3:0x133 / me=umh / subme=11 / psy=1 / psy_rd=1.00:0.20 / mixed_ref=1 / me_range=48 / chroma_me=1 / trellis=2 / 8x8dct=1 / cqm=0 / deadzone=21,11 / fast_pskip=1 / chroma_qp_offset=-3 / threads=6 / lookahead_threads=1 / sliced_threads=0 / nr=0 / decimate=1 / interlaced=0 / bluray_compat=0 / constrained_intra=0 / bframes=10 / b_pyramid=2 / b_adapt=2 / b_bias=0 / direct=3 / weightb=1 / open_gop=0 / weightp=2 / keyint=250 / keyint_min=23 / scenecut=40 / intra_refresh=0 / rc_lookahead=60 / rc=2pass / mbtree=1 / bitrate=3900 / ratetol=1.0 / qcomp=0.60 / qpmin=0 / qpmax=69 / qpstep=4 / cplxblur=20.0 / qblur=0.5 / ip_ratio=1.40 / aq=1:1.00
Language                       : English
Default                        : Yes
Forced                         : No

Audio #1
ID                             : 2
Format                         : AC-3
Format/Info                    : Audio Coding 3
Commercial name                : Dolby Digital
Codec ID                       : A_AC3
Duration                       : 1 h 27 min
Bit rate mode                  : Constant
Bit rate                       : 192 kb/s
Channel(s)                     : 2 channels
Channel layout                 : L R
Sampling rate                  : 48.0 kHz
Frame rate                     : 31.250 FPS (1536 SPF)
Bit depth                      : 16 bits
Compression mode               : Lossy
Stream size                    : 120 MiB (4%)
Title                          : MVO | HDRezka Studio
Language                       : Russian
Service kind                   : Complete Main
Default                        : Yes
Forced                         : No

Audio #2
ID                             : 3
Format                         : E-AC-3
Format/Info                    : Enhanced AC-3
Commercial name                : Dolby Digital Plus
Codec ID                       : A_EAC3
Duration                       : 1 h 27 min
Bit rate mode                  : Constant
Bit rate                       : 640 kb/s
Channel(s)                     : 6 channels
Channel layout                 : L R C LFE Ls Rs
Sampling rate                  : 48.0 kHz
Frame rate                     : 31.250 FPS (1536 SPF)
Compression mode               : Lossy
Stream size                    : 400 MiB (14%)
Language                       : English
Service kind                   : Complete Main
Default                        : No
Forced                         : No

Text
ID                             : 4
Format                         : UTF-8
Codec ID                       : S_TEXT/UTF8
Codec ID/Info                  : UTF-8 Plain Text
Duration                       : 1 h 22 min
Bit rate                       : 27 b/s
Count of elements              : 560
Stream size                    : 16.8 KiB (0%)
Language                       : English
Default                        : No
Forced                         : No



Скриншоты:
[+] Всего файлов в раздаче - 1:
Body.at.Brighton.Rock.2019.WEBRip.720p.mkv2.89 GB

Показать еще раздачи по запросу смертельная:
2019-05-26 U Смертельная битва: Наследие / Mortal Kombat: Legacy [S01-02] (2011-2013) WEB-DLRip 720p | LostFilm 5.68 GB ↑ 44 ↓ 29
2019-05-19 U Смертельная тропа / Body at Brighton Rock (2019) WEB-DLRip от Portablius | HDRezka Studio 746.10 MB ↑ 69 ↓ 9
2019-05-17 U Смертельная тропа / Body at Brighton Rock (2019) WEB-DLRip-AVC от ExKinoRay | HDRezka Studio 744.17 MB ↑ 28 ↓ 24
2019-05-17 U Смертельная тропа / Body at Brighton Rock (2019) WEB-DLRip | HDRezka Studio 1.46 GB ↑ 60 ↓ 31
2019-05-16 U Смертельная тропа / Body at Brighton Rock (2019) WEB-DL 1080p | HDRezka Studio 5.73 GB ↑ 71 ↓ 96
2019-03-23 U Мое прекрасное тело: Смертельная мода на здоровье (2019) SATRip 1.33 GB ↑ 87 ↓ 20
2019-02-21 U Аладдин и смертельная лампа / Aladdin and the Death Lamp (2012) WEB-DL 720p | L1 2.74 GB ↑ 231 ↓ 82

Отзывы
Зарегистрируйтесь чтобы добавить комментарий.
Обратная связь
Copyleft ©