↑↓Torrent.by
Поиск
Логин: Регистрация
Пароль: Восстановить пароль
Загрузка...

Побег (2005) DVDRip-AVC от KORSAR

Скачать pobeg-2005-dvdrip-avc-ot-korsar.torrent
U Магнитная ссылка Размер: 2.37 GB Раздают: 29 Качают: 16 Добавлен: 2019-05-19 06:33:30
Побег (2005) DVDRip-AVC от KORSAR

Год выхода: 2005
Жанр: Триллер, Драма, Криминал
Режиссер: Егор Кончаловский
В ролях: Евгений Миронов, Алексей Серебряков, Андрей Смоляков, Виктория Толстоганова, Александр Мохов, Юрий Беляев, Любовь Толкалина, Александр Новин, Виктор Добронравов, Олег Протасо

О фильме:
Еще вчера у Евгения Ветрова была другая жизнь. У него были деньги, безупречная репутация, уважение коллег и самое главное любовь. И как оказалось, у него были враги. В день подписания важнейшего контракта с американскими инвесторами кто-то зверски убивает жену Евгения.Никаких свидетелей и несколько неопровержимых улик. Все против Ветрова. Быстрый суд и приговор: виновен. Ему остается только бежать. Ветров принимает решение вернуться в Москву, чтобы провести собственное расследование и отомстить.

Страна: Россия
Студия: Централ Партнершип, PS TVC Studio
Продолжительность: 01:57:09
Перевод: Не требуется

Файл
Кодек: х264
Качество: DVDRip-AVC
Видео: MPEG-4 AVC, 720х440@1024x440, 25 fps, 2442 Кбит/с
Звук: AC3, 6 ch, 448 Кбит/с

Релиз:

       


[+] МИ
Общее
Уникальный идентификатор : 202045978537008622998800729625805750248 (0x9800A3D86646ACD68E5A0DF5D3E07FE8)
Полное имя : D:Побег.2005.DVDRip-AVC.mkv
Формат : Matroska
Размер файла : 2,37 Гбайт
Продолжительность : 1 ч. 57 м.
Общий поток : 2892 Кбит/сек
Дата кодирования : UTC 2017-07-04 18:22:05
Программа кодирования : mkvmerge v5.8.0 ('No Sleep / Pillow') built on Sep 2 2012 15:37:04
Библиотека кодирования : libebml v1.2.3 + libmatroska v1.3.0

Видео
Идентификатор : 1
Формат : AVC
Формат/Информация : Advanced Video Codec
Профиль формата : High@L4.1
Параметр CABAC формата : Да
Параметр ReFrames формата : 13 кадры
Идентификатор кодека : V_MPEG4/ISO/AVC
Продолжительность : 1 ч. 57 м.
Битрейт : 2442 Кбит/сек
Ширина : 720 пикс.
Высота : 440 пикс.
Соотношение сторон : 2,35:1
Частота кадров : 25,000 кадр/сек
Цветовое пространство : YUV
Подвыборка цветности : 4:2:0
Битовая глубина : 8 бит
Тип развёртки : Прогрессивная
Бит/(Пиксели*Кадры) : 0.308
Размер потока : 1,95 Гбайт (83%)
Библиотека кодирования : x264 core 148 r2744kMod b97ae06
Настройки программы : cabac=1 / ref=13 / deblock=1:-2:-1 / analyse=0x3:0x133 / me=umh / subme=10 / psy=1 / fade_compensate=0.00 / psy_rd=1.05:0.12 / mixed_ref=1 / me_range=32 / chroma_me=1 / trellis=2 / 8x8dct=1 / cqm=0 / deadzone=21,11 / fast_pskip=0 / chroma_qp_offset=-3 / threads=3 / lookahead_threads=1 / sliced_threads=0 / nr=0 / decimate=0 / interlaced=0 / bluray_compat=0 / constrained_intra=0 / bframes=10 / b_pyramid=2 / b_adapt=2 / b_bias=0 / direct=3 / weightb=1 / open_gop=0 / weightp=2 / keyint=250 / keyint_min=25 / scenecut=40 / intra_refresh=0 / rc=2pass / mbtree=0 / bitrate=2442 / ratetol=1.0 / qcomp=0.63 / qpmin=0 / qpmax=39 / qpstep=4 / cplxblur=20.0 / qblur=0.5 / ip_ratio=1.25 / pb_ratio=1.30 / aq=1:1.00
Язык : English
Основные цвета : BT.470-6 System B, BT.470-6 System G, BT.601-6 625, BT.1358 625, BT.1700 625 PAL, BT.1700 625 SECAM
Характеристики трансфера : BT.470-6 System B, BT.470-6 System G
Коэффициенты матрицы : BT.470-6 System B, BT.470-6 System G, BT.601-6 625, BT.1358 625, BT.1700 625 PAL, BT.1700 625 SECAM, IEC 61966-2-4 601

Аудио
Идентификатор : 2
Формат : AC-3
Формат/Информация : Audio Coding 3
Расширение режима : CM (complete main)
Идентификатор кодека : A_AC3
Продолжительность : 1 ч. 57 м.
Вид битрейта : Постоянный
Битрейт : 448 Кбит/сек
Канал(ы) : 6 канала(ов)
Расположение каналов : Front: L C R, Side: L R, LFE
Частота : 48,0 КГц
Битовая глубина : 16 бит
Метод сжатия : С потерями
Размер потока : 375 Мбайт (15%)
Язык : Russian



Скриншоты:
[+] Всего файлов в раздаче - 1:
Побег.2005.DVDRip-AVC.mkv2.37 GB

Показать еще раздачи по запросу побег:
2019-06-11 U Большой кошачий побег / Mao yu tao hua yuan / Cats & Peachtopia (2018) WEB-DLRip 1080p | iTunes 3.21 GB ↑ 21 ↓ 11
2019-05-04 U Пленница. Побег / Flukt (2012) BDRip | Р 1.71 GB ↑ 71 ↓ 50
2019-04-29 U Большой кошачий побег / Mao yu tao hua yuan / Cats & Peachtopia (2018) WEB-DLRip от MegaPeer | iTunes 1.46 GB ↑ 206 ↓ 56
2019-02-24 U Побег из тюрьмы / Jailbreak (2017) WEBRip 1080p | LakeFilms 1.56 GB ↑ 84 ↓ 13
2018-11-10 U Андрей Круз - Земли лишних. Vamos! 1. Побег (2018) МР3 578.99 MB ↑ 86 ↓ 10
2018-10-23 U Загадки века. Светлана Аллилуева: побег по расчету (2018) SATRip 521.54 MB ↑ 279 ↓ 18
2018-10-22 U Искажение / Побег из реальности / Alterscape (2018) WEBRip | L2 1.30 GB ↑ 89 ↓ 28

Отзывы
Зарегистрируйтесь чтобы добавить комментарий.
Обратная связь
Copyleft ©