↑↓Torrent.by
Поиск
Логин: Регистрация
Пароль: Восстановить пароль
Загрузка...

Евровидение 2019 / Eurovision Song Contest 2019. Финал [Россия 1] [18.05] (2019) HDTV 1080i

Скачать evrovidenie-2019-eurovision-song-contest-final-rossiya-1-18-05-hdtv-1080i.torrent
U Магнитная ссылка Размер: 22.97 GB Раздают: 133 Качают: 171 Добавлен: 2019-05-19 20:21:42
Евровидение 2019 / Eurovision Song Contest 2019. Финал [Россия 1] [18.05] (2019) HDTV 1080i

Евровидение 2019 - Финал / Eurovision 2019 - Final / Россия 1 HD

Дата/Год выпуска: 18 мая 2019
Страна/Место проведения: Tel Aviv, Israel
Жанр:  Pop
Продолжительность: 03:58:00

Описание: Грандиозный финал 64‑й конкурса песни «Евровидение». Во финале, который состоялся 18 мая, свои номера показали 26 стран-участниц.  
Комментировали: Дмитрий Губерниев и Ольга Шелест
Автор рипа/записи: ilya2129

Качество: HDTV
Разрешение видео/развертка: 1080i
Контейнер: TS
Видео кодек: H.264
Аудио кодек: MPEG Audio
Видео: H264, 1920x1080, 12900kbps, 25fps
Аудио: MPEG Audio, 192kbps, 48000kHz, 2ch
[+] Треклист

01. Мальта. Michela — Chameleon
02. Албания. Йонида Маличи — Ktheju tokës
03. Чехия, Lake Malawi — Friend of a Friend
04. Германия. S!sters — Sister
05. Россия. Сергей Лазарев — Scream
06. Дания. Леонора — Love Is Forever
07. Сан-Марино. Серхат — Say Na Na Na
08. Северная Македония. Тамара Тодевска — Proud
09. Швеция. Йон Лундвик — Too Late For Love
10. Словения. Зала Краль и Гашпер Шантл — Sebi
11. Кипр. Tamta — Replay
12. Нидерланды. Дункан Лоуренс — Arcade
13. Греция. Катерина Дуска — Better Love
14. Израиль. Коби Марими — Home
15. Норвегия. KeiiNO — Spirit in the Sky
16. Великобритания. Майкл Райс — Bigger Than Us
17. Исландия. Hatari — Hatrið mun sigra
18. Эстония. Виктор Крон — Storm
19. Беларусь, ZENA — Like It
20. Азербайджан. Чингиз — Truth
21. Франция. Билал Ассани — Roi
22. Италия. Mahmood — Soldi
23. Сербия. Невена Божович — Kruna
24. Швейцария. Лука Хэнни — She Got Me
25. Австралия. Кейт Миллер-Хайдке — Zero Gravity
26. Испания. Miki — La Venda

Мадонна - "Future" feat. Quavo / "Like a Prayer"
Кончита Вурст - "Heroes"
Монс Зелмерлев - "Fuego"
Элени Фурейра - "Dancing Lasha Tumbai"
Верка Сердючка - "Toy"
Гали Атари - "Hallelujah"
Нетта Барзилай - "Nana Banana"
Дана International - "Diva" / "Tel Aviv"
Надав Гедж - "Golden Boy"




[+] Отчёт MediaInfo / BDInfo

Общее
Идентификатор                            : 1 (0x1)
Полное имя                               : G:Eurovision 2019Eurovision 2019 - Финал - Россия 1 HD.ts
Формат                                   : MPEG-TS
Размер файла                             : 23,0 Гбайт
Продолжительность                        : 3 ч. 58 м.
Режим общего битрейта                    : Переменный
Общий поток                              : 13,8 Мбит/сек

Видео
Идентификатор                            : 1311 (0x51F)
Идентификатор меню                       : 1 (0x1)
Формат                                   : AVC
Формат/Информация                        : Advanced Video Codec
Профиль формата                          : Main@L4
Настройки формата                        : CABAC / 3 Ref Frames
Параметр CABAC формата                   : Да
Параметр RefFrames формата               : 3 кадра
Параметр GOP формата                     : M=4, N=32
Идентификатор кодека                     : 27
Продолжительность                        : 3 ч. 58 м.
Битрейт                                  : 12,9 Мбит/сек
Ширина                                   : 1920 пикселей
Высота                                   : 1080 пикселей
Соотношение сторон                       : 16:9
Частота кадров                           : 25,000 кадров/сек
Цветовое пространство                    : YUV
Субдискретизация насыщенности            : 4:2:0
Битовая глубина                          : 8 бит
Тип развёртки                            : Чересстрочная
Метод сохранения типа развёртки          : Раздельные поля
Порядок развёртки                        : Верхнее поле первое
Бит/(Пиксели*Кадры)                      : 0.249
Размер потока                            : 21,5 Гбайт (94%)
Цветовой диапазон                        : Limited
Основные цвета                           : BT.709
Характеристики трансфера                 : BT.709
Коэффициенты матрицы                     : BT.709

Аудио
Идентификатор                            : 1312 (0x520)
Идентификатор меню                       : 1 (0x1)
Формат                                   : MPEG Audio
Версия формата                           : Version 1
Профиль формата                          : Layer 2
Идентификатор кодека                     : 3
Продолжительность                        : 3 ч. 58 м.
Вид битрейта                             : Постоянный
Битрейт                                  : 192 Кбит/сек
Каналы                                   : 2 канала
Частота                                  : 48,0 КГц
Частота кадров                           : 41,667 кадра/сек (1152 SPF)
Метод сжатия                             : С потерями
Задержка видео                           : -120 мс.
Размер потока                            : 327 Мбайт (1%)
Язык                                     : Russian




Скриншоты:
[+] Всего файлов в раздаче - 1:
Eurovision 2019 - Финал - Россия 1 HD.ts22.97 GB

Показать еще раздачи по запросу евровидение:
2018-05-13 U Евровидение 2018. Финал / Eurovision 2018 (2018) HDTV 1080i 18.39 GB ↑ 89 ↓ 136
2018-05-11 U Евровидение 2018. 2-й полуфинал / Eurovision 2018 (2018) HDTV 1080i 9.78 GB ↑ 42 ↓ 41
2018-05-11 U Евровидение 2018. 1-й полуфинал / Eurovision Song Contest (2018) DVB 2.14 GB ↑ 122 ↓ 7
2018-05-11 U Евровидение 2018. 2-ой полуфинал / Eurovision Song Contest (2018) DVB 2.15 GB ↑ 56 ↓ 40
2018-05-09 U Евровидение 2018. 1-й полуфинал / Eurovision 2018 (2018) HDTV 1080i 7.68 GB ↑ 51 ↓ 61
2018-05-09 U Евровидение 2018. 1-й полуфинал / Eurovision Song Contest (2018) DVB 1.98 GB ↑ 41 ↓ 41
2017-05-15 U Евровидение 2017. Финал / Eurovision 2017 (2017) HDTVRip от ImperiaFilm 2.47 GB ↑ 104 ↓ 97

Отзывы
Зарегистрируйтесь чтобы добавить комментарий.
Обратная связь
Copyleft ©