↑↓Torrent.by
Поиск
Логин: Регистрация
Пароль: Восстановить пароль
Загрузка...

Дядя Ваня (1970) WEBRip 1080p

Скачать dyadya-vanya-1970-webrip-1080p.torrent
U Магнитная ссылка Размер: 3.18 GB Раздают: 19 Качают: 11 Добавлен: 2019-05-20 05:39:50
Дядя Ваня (1970) WEBRip 1080p

Название: Дядя Ваня
Год выхода: 1970
Жанр:  Драма
Режиссер: Андрей Кончаловский
В ролях: Иннокентий Смоктуновский, Сергей Бондарчук ст., Ирина Купченко, Ирина Мирошниченко, Владимир Зельдин, Николай Пастухов, Ирина Анисимова-Вульф, Екатерина Мазурова, Владимир Бутенко

О фильме:
Драма русских провинциалов, считающих, что жизнь их не состоялась и растрачена понапрасну. Для дяди Вани это ощущение усугубляется неразделенной любовью к женщине, которую судьба на короткое время забросила в захолустное поместье, где герой и его племянница десятилетиями работают, едва сводя концы с концами…

Страна: СССР
Студия: Мосфильм
Продолжительность: 01:38:39
Перевод: Не требуется
Субтитры: Русские

Файл
Качество: WEBRip 1080p
Формат: MKV
Видео: AVC/H.264, 1480x1080, ~3970 Kbps
Аудио #1: AC3, 6 ch, 448 Kbps
Аудио #2: AC3, 2 ch, 192 Kbps


[+] M/I
Общее
Уникальный идентификатор                 : 116469524736682474911193396442307696204 (0x579F36EB6E5904D6F8FA76EFEFAF164C)
Полное имя                               : D:Дядя Ваня (1970).by.Алехаndr.mkv
Формат                                   : Matroska
Версия формата                           : Version 4 / Version 2
Размер файла                             : 3,18 Гбайт
Продолжительность                        : 1 ч. 38 м.
Общий поток                              : 4612 Кбит/сек
Дата кодирования                         : UTC 2018-05-03 14:57:22
Программа кодирования                    : mkvmerge v23.0.0 ('The Bride Said No') 64-bit
Библиотека кодирования                   : libebml v1.3.6 + libmatroska v1.4.9 / Lavf57.71.100

Видео
Идентификатор                            : 1
Формат                                   : AVC
Формат/Информация                        : Advanced Video Codec
Профиль формата                          : Main@L4
Настройки формата                        : CABAC / 1 Ref Frames
Параметр CABAC формата                   : Да
Параметр RefFrames формата               : 1 кадр
Параметр GOP формата                     : M=1, N=25
Идентификатор кодека                     : V_MPEG4/ISO/AVC
Продолжительность                        : 1 ч. 38 м.
Битрейт                                  : 3970 Кбит/сек
Ширина                                   : 1480 пикселей
Высота                                   : 1080 пикселей
Соотношение сторон                       : 1,370
Режим частоты кадров                     : Постоянный
Частота кадров                           : 25,000 кадров/сек
Цветовое пространство                    : YUV
Субдискретизация насыщенности            : 4:2:0
Битовая глубина                          : 8 бит
Тип развёртки                            : Прогрессивная
Бит/(Пиксели*Кадры)                      : 0.099
Размер потока                            : 2,74 Гбайт (86%)
Default                                  : Да
Forced                                   : Нет

Аудио #1
Идентификатор                            : 2
Формат                                   : AC-3
Формат/Информация                        : Audio Coding 3
Идентификатор кодека                     : A_AC3
Продолжительность                        : 1 ч. 38 м.
Вид битрейта                             : Постоянный
Битрейт                                  : 448 Кбит/сек
Каналы                                   : 6 каналов
Расположение каналов                     : Front: L C R, Side: L R, LFE
Частота                                  : 48,0 КГц
Частота кадров                           : 31,250 кадров/сек (1536 SPF)
Битовая глубина                          : 16 бит
Метод сжатия                             : С потерями
Задержка видео                           : 42 мс.
Размер потока                            : 316 Мбайт (10%)
Default                                  : Да
Forced                                   : Нет

Аудио #2
Идентификатор                            : 3
Формат                                   : AC-3
Формат/Информация                        : Audio Coding 3
Идентификатор кодека                     : A_AC3
Продолжительность                        : 1 ч. 38 м.
Вид битрейта                             : Постоянный
Битрейт                                  : 192 Кбит/сек
Каналы                                   : 2 канала
Расположение каналов                     : Front: L R
Частота                                  : 48,0 КГц
Частота кадров                           : 31,250 кадров/сек (1536 SPF)
Битовая глубина                          : 16 бит
Метод сжатия                             : С потерями
Размер потока                            : 135 Мбайт (4%)
Default                                  : Нет
Forced                                   : Нет

Текст
Идентификатор                            : 4
Формат                                   : UTF-8
Идентификатор кодека                     : S_TEXT/UTF8
Идентификатор кодека/Информация          : UTF-8 Plain Text
Продолжительность                        : 1 ч. 33 м.
Битрейт                                  : 65 бит/сек
ElementCount                             : 648
Размер потока                            : 44,8 Кбайт (0%)
Default                                  : Да
Forced                                   : Нет



Скриншоты:
[+] Всего файлов в раздаче - 1:
Дядя Ваня (1970).by.Алехаndr.mkv3.18 GB

Показать еще раздачи по запросу дядя:
2016-02-08 U Дядя Джон / Uncle John (2015) WEB-DL 720p | L2 2К3.68 GB ↑ 75 ↓ 25
2016-02-07 U Дядя Джон / Uncle John (2015) WEB-DLRip | L2 2.05 GB ↑ 40 ↓ 23
2016-02-07 U Дядя Джон / Uncle John (2015) WEB-DLRip | L2 1.37 GB ↑ 223 ↓ 112
2014-03-04 U Дядя / Uncle [S01] (2014) WEBRip 720p | Jimmy J. 3.07 GB ↑ 78 ↓ 33
2013-11-05 U Дядюшка Бак / Дядя Бак / Uncle Buck (1989) HDRip от New-team 1К1.46 GB ↑ 23 ↓ 10
2013-10-08 U Дядя Шарль / L'oncle Charles (2012) HDRip | НТВ+ 1.37 GB ↑ 10 ↓ 0
2013-10-08 U Дядя Шарль / L'oncle Charles (2012) BDRip 720p | НТВ+ 20К4.50 GB ↑ 0 ↓ 262

Отзывы
Зарегистрируйтесь чтобы добавить комментарий.
Обратная связь
Copyleft ©