↑↓Torrent.by
Поиск
Логин: Регистрация
Пароль: Восстановить пароль
Загрузка...

Домовой (2019) WEB-DL 720p | iTunes

Скачать domovoy-2019-web-dl-720p-itunes.torrent
U Магнитная ссылка Размер: 3.18 GB Раздают: 263 Качают: 69 Добавлен: 2019-05-21 05:38:53
Домовой (2019) WEB-DL 720p | iTunes

Название: Домовой
Год выхода: 2019
Жанр: семейный, фэнтези, комедия
Режиссер: Евгений Бедарев
В ролях: Сергей Чирков, Екатерина Гусева, Александра Политик, Ольга Остроумова-Гутшмидт, Павел Деревянко, Юлия Сулес, Татьяна Орлова, Сергей Рубеко, Дмитрий Белоцерковский, Дмитрий Бедарев

О фильме:
В обычном и суетливом городе Москве есть необычный Дом, обросший сотнями тайн и загадок. В этом доме есть странная квартира, в которой еще надолго не задержался ни один жилец…
И лишь тогда, когда в эту «милую» квартиру заезжает самостоятельная мама с очаровательной 8-летней дочерью Алиной, новые жильцы узнают, что жилплощадь их — непростая, а живет в ней самый настоящий Домовой. Только вот хранитель очага уже давно обиделся на весь род человеческий и сделает все вообразимые гадости, только бы остаться одному в злополучной квартире. Но всё меняется, когда Домовому бросает вызов злая колдунья…

Страна: Россия
Продолжительность: 01:43:12
Перевод: Не требуется (русский)

Файл
Качество: WEB-DL 720p | iTunes
Видео: AVC/H.264, 1280x498, ~4031 Кbps, 23.976 fps
Звук: Аудио: AC3, 6 ch, 384 kbps - Русский


[+] Mediainfo
Общее
Уникальный идентификатор                 : 31259394045155316588999288587441345226 (0x1784571E21440A58D28E7BBA0CBB12CA)
Полное имя                               : Domovoy.2019.WEB-DL.720p.mkv
Формат                                   : Matroska
Версия формата                           : Version 4
Размер файла                             : 3,18 Гбайт
Продолжительность                        : 1 ч. 43 м.
Общий поток                              : 4417 Кбит/сек
Дата кодирования                         : UTC 2019-05-20 17:17:53
Программа кодирования                    : mkvmerge v23.0.0 ('The Bride Said No') 64-bit
Библиотека кодирования                   : libebml v1.3.6 + libmatroska v1.4.9

Видео
Идентификатор                            : 1
Формат                                   : AVC
Формат/Информация                        : Advanced Video Codec
Профиль формата                          : Main@L3.1
Настройки формата                        : 2 Ref Frames
Параметр CABAC формата                   : Нет
Параметр RefFrames формата               : 2 кадра
Идентификатор кодека                     : V_MPEG4/ISO/AVC
Продолжительность                        : 1 ч. 43 м.
Битрейт                                  : 4031 Кбит/сек
Ширина                                   : 1280 пикселей
Высота                                   : 498 пикселей
Соотношение сторон                       : 2,570
Режим частоты кадров                     : Постоянный
Частота кадров                           : 23,976 кадра/сек
Цветовое пространство                    : YUV
Субдискретизация насыщенности            : 4:2:0
Битовая глубина                          : 8 бит
Тип развёртки                            : Прогрессивная
Бит/(Пиксели*Кадры)                      : 0.264
Размер потока                            : 2,91 Гбайт (91%)
Язык                                     : Russian
Default                                  : Да
Forced                                   : Нет
Цветовой диапазон                        : Limited
Основные цвета                           : BT.709
Характеристики трансфера                 : BT.709
Коэффициенты матрицы                     : BT.709

Аудио
Идентификатор                            : 2
Формат                                   : AC-3
Формат/Информация                        : Audio Coding 3
Коммерческое название                    : Dolby Digital
Идентификатор кодека                     : A_AC3
Продолжительность                        : 1 ч. 43 м.
Вид битрейта                             : Постоянный
Битрейт                                  : 384 Кбит/сек
Каналы                                   : 6 каналов
ChannelLayout                            : L R C LFE Ls Rs
Частота                                  : 48,0 КГц
Частота кадров                           : 31,250 кадров/сек (1536 SPF)
Битовая глубина                          : 16 бит
Метод сжатия                             : С потерями
Задержка видео                           : -42 мс.
Размер потока                            : 283 Мбайт (9%)
Язык                                     : Russian
ServiceKind                              : Complete Main
Default                                  : Да
Forced                                   : Нет

Меню
00:00:00.000                             : en:1
00:06:09.000                             : en:2
00:16:14.000                             : en:3
00:26:05.000                             : en:4
00:38:53.000                             : en:5
00:47:08.000                             : en:6
00:59:20.000                             : en:7
01:09:14.000                             : en:8
01:19:49.000                             : en:9
01:31:03.000                             : en:10
01:38:01.000                             : en:11  



Скриншоты:
[+] Всего файлов в раздаче - 1:
Domovoy.2019.WEB-DL.720p.mkv3.18 GB

Показать еще раздачи по запросу домовой:
2019-05-21 U Домовой (2019) WEB-DLRip от Portablius | iTunes 746.54 MB ↑ 440 ↓ 121
2019-05-21 U Домовой (2019) WEB-DLRip от MegaPeer | iTunes 1.46 GB ↑ 246 ↓ 135
2019-05-21 U Домовой (2019) WEB-DL 1080p | iTunes 3.54 GB ↑ 430 ↓ 163
2017-10-02 U Домовой [01-02 из 02] (2017) WEB-DLRip-AVC от Files-x 1.40 GB ↑ 111 ↓ 44
2017-10-02 U Домовой [01-02 из 02] (2017) WEB-DLRip от Files-x 1К1.08 GB ↑ 127 ↓ 85
2014-01-05 U Домовой (2008) DVDRip от New-Team 1.46 GB ↑ 554 ↓ 27
2013-11-24 U Домовой (2008) DVDRip 10К1.37 GB ↑ 348 ↓ 2

Отзывы
Зарегистрируйтесь чтобы добавить комментарий.
Обратная связь
Copyleft ©