↑↓Torrent.by
Поиск
Логин: Регистрация
Пароль: Восстановить пароль
Загрузка...

Инаугурация президента Украины Владимира Зеленского в Верховной Раде Украины [20.05] (2019) WEBRip

Скачать inauguraciya-prezidenta-ukrainy-vladimira-zelenskogo-v-verhovnoy-rade-20-05-2019-webrip.torrent
U Магнитная ссылка Размер: 864.75 MB Раздают: 65 Качают: 19 Добавлен: 2019-05-21 05:40:18
Инаугурация президента Украины Владимира Зеленского в Верховной Раде Украины [20.05] (2019) WEBRip

Название: Инаугурация президента Украины . Прямая трансляция
Год выпуска: 2019
Жанр:  Реалити-шоу
В ролях: Владимир Зеленский

О фильме: Прямая трансляция инаугурации нового президента Украины Владимира Зеленского..

Выпущено: Россия
Студия: НТВ
Продолжительность: 01:02:19
Перевод: Не требуется (Онлайн перевод)

Файл
Качество: WEBRip
Видео: AVC, 1 809 Кбит/c, 1280x720
Аудио: AAC, 2 ch, 128 Кбит/с
[+] MediaInfo
C:DownloadsИнаугурация президента Украины Владимира Зеленского.mp4
  General
     Complete name : C:DownloadsИнаугурация президента Украины Владимира Зеленского.mp4
     Format : MPEG-4
     Format profile : Base Media / Version 2
     Codec ID : mp42 (isom/mp42)
     File size : 865 MiB
     Duration : 1 h 2 min
     Overall bit rate mode : Variable
     Overall bit rate : 1 940 kb/s
     Encoded date : UTC 2019-05-20 08:17:50
     Tagged date : UTC 2019-05-20 08:17:50
     gsst : 0
     gstd : 3739225
  Video #1
     ID : 1
     Format : AVC
     Format/Info : Advanced Video Codec
     Format profile : Main@L3.1
     Format settings : CABAC / 3 Ref Frames
     Format settings, CABAC : Yes
     Format settings, Reference frames : 3 frames
     Codec ID : avc1
     Codec ID/Info : Advanced Video Coding
     Duration : 1 h 2 min
     Bit rate : 1 809 kb/s
     Width : 1 280 pixels
     Height : 720 pixels
     Display aspect ratio : 16:9
     Frame rate mode : Constant
     Frame rate : 25.000 FPS
     Color space : YUV
     Chroma subsampling : 4:2:0
     Bit depth : 8 bits
     Scan type : Progressive
     Bits/(Pixel*Frame) : 0.079
     Stream size : 806 MiB (93%)
     Title : ISO Media file produced by Google Inc. Created on: 05/20/2019.
     Encoded date : UTC 2019-05-20 08:17:50
     Tagged date : UTC 2019-05-20 08:17:50
     Color range : Limited
     Color primaries : BT.709
     Transfer characteristics : BT.709
     Matrix coefficients : BT.709
     Codec configuration box : avcC
  Audio #2
     ID : 2
     Format : AAC LC
     Format/Info : Advanced Audio Codec Low Complexity
     Codec ID : mp4a-40-2
     Duration : 1 h 2 min
     Bit rate mode : Variable
     Bit rate : 128 kb/s
     Channel(s) : 2 channels
     Channel layout : L R
     Sampling rate : 44.1 kHz
     Frame rate : 43.066 FPS (1024 SPF)
     Compression mode : Lossy
     Stream size : 57.1 MiB (7%)
     Title : ISO Media file produced by Google Inc. Created on: 05/20/2019.
     Encoded date : UTC 2019-05-20 08:17:50
     Tagged date : UTC 2019-05-20 08:17:50



Скриншоты:
[+] Всего файлов в раздаче - 1:
Инаугурация президента Украины Владимира Зеленского.mp4864.75 MB

Отзывы
Зарегистрируйтесь чтобы добавить комментарий.
Обратная связь
Copyleft ©