↑↓Torrent.by
Поиск
Логин: Регистрация
Пароль: Восстановить пароль
Загрузка...

Однажды в Лондоне / Once Upon a Time in London (2019) WEB-DLRip от Portablius | HDRezka Studio

Скачать odnazhdy-v-londone-once-upon-a-time-in-london-2019-web-dlrip-ot-portablius-hdrezka-studio.torrent
U Магнитная ссылка Размер: 746.50 MB Раздают: 26 Качают: 6 Добавлен: 2019-05-21 05:40:46
Однажды в Лондоне / Once Upon a Time in London (2019) WEB-DLRip от Portablius | HDRezka Studio

Название: Однажды в Лондоне
Оригинальное название: Once Upon a Time in London
Год выхода: 2019
Жанр: Криминал, триллер
Режиссер: Саймон Рамли
В ролях: Холли Эрл, Доминик Китинг, Джофф Белл, Лео Грегори, Джейми Формен, Майкл МакКелл, Энди Беквит, Даг Аллен, Кейт Брейтуэйт, Терри Стоун

О фильме: Действие разворачивается вокруг двух самых опасных бандитов Лондона — Джека Комера и Билли Хилла, которые совместными усилиями попытались взять под контроль весь преступный мир города в середине двадцатого века. Сметая все на своем пути, они построили целую империю, в основу которой легли бесчисленные трупы их конкурентов. Комер и Хилл грабили, убивали, закатывали бесконечные вечеринки с наркотиками и алкоголем, однако это не могло продолжаться вечно. В итоге гангстеры нажили столько врагов, что за ними развернулась настоящая охота, как со стороны полиции, так и со стороны преступных группировок...

Страна: Великобритания
Студия: Gateway Films
Продолжительность: 01:51:07
Перевод: Профессиональный (многоголосый, закадровый) | HDRezka Studio
Субтитры: нет

Файл
Кодек: XviD
Качество: WEB-DLRip
Видео: 704x384 (1.83:1), 24.000 fps, XviD build 73 ~801 kbps avg, 0.12 bit/pixel
Звук: 48 kHz, MPEG Layer 3, 2 ch, ~128.00 kbps avg


[+] MediaInfo
General
Complete name               : Once.Upon.a.Time.in.London.2019.WEB-DLRip.Portablius.avi
Format                      : AVI
Format/Info                 : Audio Video Interleave
File size                   : 746 MiB
Duration                    : 1 h 51 min
Overall bit rate            : 939 kb/s
Writing application         : VirtualDubMod 1.5.10.3 | www.virtualdub-fr.org || (build 2550/release)
Writing library             : VirtualDubMod build 2550/release

Video
ID                          : 0
Format                      : MPEG-4 Visual
Format profile              : Advanced Simple@L5
Format settings             : BVOP1 / Custom Matrix
Format settings, BVOP       : 1
Format settings, QPel       : No
Format settings, GMC        : No warppoints
Format settings, Matrix     : Custom
Codec ID                    : XVID
Codec ID/Hint               : XviD
Duration                    : 1 h 51 min
Bit rate                    : 802 kb/s
Width                       : 704 pixels
Height                      : 384 pixels
Display aspect ratio        : 1.85:1
Frame rate                  : 24.000 FPS
Color space                 : YUV
Chroma subsampling          : 4:2:0
Bit depth                   : 8 bits
Scan type                   : Progressive
Compression mode            : Lossy
Bits/(Pixel*Frame)          : 0.124
Stream size                 : 637 MiB (85%)
Writing library             : XviD 73

Audio
ID                          : 1
Format                      : MPEG Audio
Format version              : Version 1
Format profile              : Layer 3
Codec ID                    : 55
Codec ID/Hint               : MP3
Duration                    : 1 h 51 min
Bit rate mode               : Constant
Bit rate                    : 128 kb/s
Channel(s)                  : 2 channels
Sampling rate               : 48.0 kHz
Frame rate                  : 41.667 FPS (1152 SPF)
Compression mode            : Lossy
Stream size                 : 102 MiB (14%)
Alignment                   : Aligned on interleaves
Interleave, duration        : 42  ms (1.00 video frame)
Interleave, preload duratio : 504  ms
Writing library             : LAME3.99r
Encoding settings           : -m s -V 4 -q 2 -lowpass 17 -b 128




Скриншоты:
[+] Всего файлов в раздаче - 1:
Once.Upon.a.Time.in.London.2019.WEB-DLRip.Portablius.avi746.50 MB

Показать еще раздачи по запросу однажды:
2019-07-15 U Однажды в Стокгольме / Stockholm (2018) WEB-DLRip от MegaPeer | iTunes 1.46 GB ↑ 167 ↓ 72
2019-07-13 U Однажды ночью / The Night Of [S01] (2016) HDTV 720p от qqss44 | Amedia 8.61 GB ↑ 65 ↓ 38
2019-06-09 U Однажды в Стокгольме / Stockholm (2018) WEB-DLRip от Scarabey | HDRezka Studio 1.49 GB ↑ 26 ↓ 6
2019-06-07 U Однажды в Стокгольме / Stockholm (2018) WEB-DLRip от Portablius | HDRezka Studio 741.07 MB ↑ 61 ↓ 11
2019-06-05 U Однажды в Стокгольме / Stockholm (2018) WEB-DLRip от MegaPeer | HDRezka Studio 1.45 GB ↑ 260 ↓ 143
2019-06-05 U Однажды в Стокгольме / Stockholm (2018) WEB-DL 1080p от селезень | HDRezka Studio 5.83 GB ↑ 310 ↓ 232
2019-05-19 U Однажды в России [06х01-06] (2019) WEBRip 720p от Files-x 6.08 GB ↑ 72 ↓ 305

Отзывы
Зарегистрируйтесь чтобы добавить комментарий.
Обратная связь
Copyleft ©