↑↓Torrent.by
Поиск
Логин: Регистрация
Пароль: Восстановить пароль
Загрузка...

Мы / Us (2019) WEB-DL 1080p | iTunes

Скачать my-us-2019-web-dl-1080p-itunes.torrent
U Магнитная ссылка Размер: 4.34 GB Раздают: 805 Качают: 439 Добавлен: 2019-05-23 14:47:48
Мы / Us (2019) WEB-DL 1080p | iTunes

Название: Мы
Оригинальное название: Us
Год выхода: 2019
Жанр: Ужасы, триллер
Режиссер: Джордан Пил
В ролях: Лупита Нионго, Уинстон Дьюк, Элизабет Мосс, Тим Хайдекер, Шахади Райт Джозеф, Эван Алекс, Яхья Абдул-Матин II, Анна Диоп, Кали Шелдон, Ноэль Шелдон, Мэдисон Карри, Эшли МакКой, Напьера Гровс, Лон Гоуэн, Дастин Ибарра

О фильме:
Будучи маленькой девочкой, Аделаида пережила травмирующее событие. В парке развлечений на побережье она отошла от родителей и забрела в зеркальный лабиринт, где встретила свою точную копию. Через много лет, уже с мужем и детьми, Аделаида приезжает в дом бабушки, который находится рядом с тем самым злосчастным парком, и с самого начала женщина чувствует себя не в своей тарелке. Муж считает, что в таком прекрасном месте нужно расслабляться, а не нервничать, но его мнение быстро меняется, когда перед домом появляются незнакомцы в красных комбинезонах с явно агрессивными намерениями.

 
Страна: США, Япония, Китай
Студия: Monkeypaw Productions
Продолжительность: 01:56:28

Файл
Качество: WEB-DL 1080p | iTunes
Видео: AVC/H.264, 1916x800, 4568 Кbps, 23.976 fps
Звук:
Аудио 1: AC3, 6 ch, 384 Kbps - русский
Аудио 2: AC3, 6 ch, 384 Kbps - английский
Субтитры: Русские (форс хардсаб), Английские (полные, SDH)


[+] Mediainfo
Общее
Уникальный идентификатор                 : 199484213007033257948839793891304008441 (0x9613430D99B86BCDB042358FF5A7EAF9)
Полное имя                               : Us.2019.WEB-DL.1080p.mkv
Формат                                   : Matroska
Версия формата                           : Version 4
Размер файла                             : 4,34 Гбайт
Продолжительность                        : 1 ч. 56 м.
Общий поток                              : 5339 Кбит/сек
Название фильма                          : Us.2019.WEB-DL.1080p
Дата кодирования                         : UTC 2019-05-22 20:36:51
Программа кодирования                    : mkvmerge v23.0.0 ('The Bride Said No') 64-bit
Библиотека кодирования                   : libebml v1.3.6 + libmatroska v1.4.9

Видео
Идентификатор                            : 1
Формат                                   : AVC
Формат/Информация                        : Advanced Video Codec
Профиль формата                          : High@L4
Настройки формата                        : CABAC / 5 Ref Frames
Параметр CABAC формата                   : Да
Параметр RefFrames формата               : 5 кадров
Идентификатор кодека                     : V_MPEG4/ISO/AVC
Продолжительность                        : 1 ч. 56 м.
Битрейт                                  : 4568 Кбит/сек
Ширина                                   : 1916 пикселей
Высота                                   : 800 пикселей
Соотношение сторон                       : 2,40:1
Режим частоты кадров                     : Постоянный
Частота кадров                           : 23,976 (23976/1000) кадра/сек
Цветовое пространство                    : YUV
Субдискретизация насыщенности            : 4:2:0
Битовая глубина                          : 8 бит
Тип развёртки                            : Прогрессивная
Бит/(Пиксели*Кадры)                      : 0.124
Размер потока                            : 3,72 Гбайт (86%)
Язык                                     : English
Default                                  : Да
Forced                                   : Нет
Цветовой диапазон                        : Limited
Основные цвета                           : BT.709
Характеристики трансфера                 : BT.709
Коэффициенты матрицы                     : BT.709

Аудио #1
Идентификатор                            : 2
Формат                                   : AC-3
Формат/Информация                        : Audio Coding 3
Коммерческое название                    : Dolby Digital
Идентификатор кодека                     : A_AC3
Продолжительность                        : 1 ч. 56 м.
Вид битрейта                             : Постоянный
Битрейт                                  : 384 Кбит/сек
Каналы                                   : 6 каналов
ChannelLayout                            : L R C LFE Ls Rs
Частота                                  : 48,0 КГц
Частота кадров                           : 31,250 кадров/сек (1536 SPF)
Битовая глубина                          : 16 бит
Метод сжатия                             : С потерями
Размер потока                            : 320 Мбайт (7%)
Язык                                     : Russian
ServiceKind                              : Complete Main
Default                                  : Да
Forced                                   : Нет

Аудио #2
Идентификатор                            : 3
Формат                                   : AC-3
Формат/Информация                        : Audio Coding 3
Коммерческое название                    : Dolby Digital
Идентификатор кодека                     : A_AC3
Продолжительность                        : 1 ч. 56 м.
Вид битрейта                             : Постоянный
Битрейт                                  : 384 Кбит/сек
Каналы                                   : 6 канала
ChannelLayout                            : L R C LFE Ls Rs
Частота                                  : 48,0 КГц
Частота кадров                           : 31,250 кадров/сек (1536 SPF)
Битовая глубина                          : 16 бит
Метод сжатия                             : С потерями
Размер потока                            : 320 Мбайт (7%)
Язык                                     : English
ServiceKind                              : Complete Main
Default                                  : Нет
Forced                                   : Нет

Текст #1
Идентификатор                            : 4
Формат                                   : UTF-8
Идентификатор кодека                     : S_TEXT/UTF8
Идентификатор кодека/Информация          : UTF-8 Plain Text
Продолжительность                        : 1 ч. 49 м.
Битрейт                                  : 35 бит/сек
ElementCount                             : 1038
Размер потока                            : 28,6 Кбайт (0%)
Заголовок                                : Full
Язык                                     : English
Default                                  : Нет
Forced                                   : Нет

Текст #2
Идентификатор                            : 5
Формат                                   : UTF-8
Идентификатор кодека                     : S_TEXT/UTF8
Идентификатор кодека/Информация          : UTF-8 Plain Text
Продолжительность                        : 1 ч. 56 м.
Битрейт                                  : 57 бит/сек
ElementCount                             : 1749
Размер потока                            : 48,8 Кбайт (0%)
Заголовок                                : SDH
Язык                                     : English
Default                                  : Нет
Forced                                   : Нет

Меню
00:00:00.000                             : en:1
00:06:06.157                             : en:2
00:11:26.352                             : en:3
00:17:13.115                             : en:4
00:23:25.654                             : en:5
00:29:32.520                             : en:6
00:36:08.791                             : en:7
00:41:08.757                             : en:8
00:48:09.302                             : en:9
00:55:44.256                             : en:10
01:03:01.318                             : en:11
01:07:50.357                             : en:12
01:14:26.211                             : en:13
01:20:13.016                             : en:14
01:25:26.954                             : en:15
01:29:45.045                             : en:16
01:35:22.674                             : en:17
01:40:55.548                             : en:18
01:47:37.908                             : en:19
01:52:15.393                             : en:20  



Скриншоты:
[+] Всего файлов в раздаче - 1:
Us_2019_WEB-DL_1080p.mkv4.34 GB

Показать еще раздачи по запросу itunes:
Сегодня U Дар (2018) WEB-DLRip-AVC от ExKinoRay | iTunes 1.52 GB ↑ 74 ↓ 26
Сегодня U Питомец Юрского периода / The Adventures of Jurassic Pet (2019) WEB-DLRip-AVC от ExKinoRay | Локализованная версия | iTunes 1К1.51 GB ↑ 44 ↓ 23
Сегодня U Балканский рубеж (2019) WEB-DLRip 1080p от Талямбы | 60 fps | iTunes 13.02 GB ↑ 41 ↓ 32
Сегодня U Букашки 2 / Minuscule - Les mandibules du bout du monde (2018) HDRip от Scarabey | iTunes 1.45 GB ↑ 37 ↓ 8
Сегодня U Клаустрофобы / Escape Room (2019) BDRip 1080p от Талямбы | 60 fps | iTunes 12.27 GB ↑ 34 ↓ 23
Сегодня U Питомец Юрского периода / The Adventures of Jurassic Pet (2019) WEB-DL 1080p | Локализованная версия | iTunes 2.88 GB ↑ 94 ↓ 53
Сегодня U Игрища престолов / Purge of Kingdoms: The Unauthorized Game of Thrones Parody (2019) WEB-DLRip | iTunes 1.46 GB ↑ 152 ↓ 100

Отзывы
Зарегистрируйтесь чтобы добавить комментарий.
Обратная связь
Copyleft ©