↑↓Torrent.by
Поиск
Логин: Регистрация
Пароль: Восстановить пароль
Загрузка...

Кровь и сокровища / Blood & Treasure [01x01-02 из 13] (2019) WEB-DL | TUMBLER Studio

Скачать krov-i-sokrovischa-blood-treasure-01x01-02-iz-13-2019-web-dl-tumbler-studio.torrent
U Магнитная ссылка Размер: 1.27 GB Раздают: 45 Качают: 4 Добавлен: 2019-05-24 05:51:58
Кровь и сокровища / Blood & Treasure [01x01-02 из 13] (2019) WEB-DL | TUMBLER Studio

Название: Кровь и сокровища
Оригинальное название: Blood & Treasure
Год выпуска: 2019
Жанр:  Боевик, приключения
Выпущено: США, CBS Television Studios
Режиссер: Гай Норман Би, Стив Бойум, Холли Дэйл
В ролях: София Пернас, Мэтт Барр, Катя Винтер, Антонио Цупо, Тони Нэш, Майкл Джеймс Шоу, Джеймс Кэллис, Алисия Коппола, Карл Грабошас, Эйт Бен Аззуоз Брахим

О фильме: Чтобы поймать опасного террориста, который финансирует свои теракты, продавая древние бесценные артефакты, эксперту по предметам старины и профессиональному вору, специализирующегося на кражах редких произведений искусства, приходится объединить свои усилия во благо спасения мира.

Продолжительность: ~ 00:45:00
Перевод: Профессиональный двухголосый (TUMBLER Studio)

Файл
Кодек: XviD
Качество: WEB-DL
Видео: XviD, ~ 1800 Кбит/с, 720x400
Аудио #1: 48 kHz, AC3 Dolby Digital, 3/2 (L,C,R,l,r) + LFE ch, ~384 kbps | Русский

РЕЛИЗ БЕЗ РЕКЛАМЫ!


[+] Mediainfo

Video
ID                          : 0
Format                      : MPEG-4 Visual
Format profile              : Advanced Simple@L5
Format settings             : BVOP2
Format settings, BVOP       : 2
Format settings, QPel       : No
Format settings, GMC        : No warppoints
Format settings, Matrix     : Default (H.263)
Muxing mode                 : Packed bitstream
Codec ID                    : XVID
Codec ID/Hint               : XviD
Duration                    : 1 h 23 min
Bit rate                    : 1 796 kb/s
Width                       : 720 pixels
Height                      : 400 pixels
Display aspect ratio        : 16:9
Frame rate                  : 23.976 (24000/1001) FPS
Color space                 : YUV
Chroma subsampling          : 4:2:0
Bit depth                   : 8 bits
Scan type                   : Progressive
Compression mode            : Lossy
Bits/(Pixel*Frame)          : 0.260
Stream size                 : 1.04 GiB (82%)
Writing library             : XviD 67

Audio
ID                          : 1
Format                      : AC-3
Format/Info                 : Audio Coding 3
Commercial name             : Dolby Digital
Codec ID                    : 2000
Duration                    : 1 h 23 min
Bit rate mode               : Constant
Bit rate                    : 384 kb/s
Channel(s)                  : 6 channels
Channel positions           : Front: L C R, Side: L R, LFE
Sampling rate               : 48.0 kHz
Frame rate                  : 31.250 FPS (1536 SPF)
Bit depth                   : 16 bits
Compression mode            : Lossy
Stream size                 : 228 MiB (18%)
Alignment                   : Aligned on interleaves
Interleave, duration        : 42  ms (1.00 video frame)
Interleave, preload duratio : 512  ms
Service kind                : Complete Main



Скриншоты:
[+] Всего файлов в раздаче - 1:
Blood.and.Treasure.S01E01-E02.WEB-DL.TUMBLER.Studio.avi1.27 GB

Показать еще раздачи по запросу кровь:
2019-05-19 U Следствие вели... с Леонидом Каневским. Дом, где стекает кровь [эфир от 19.05] (2019) WEBRip 1080p от ExKinoRay 1.77 GB ↑ 70 ↓ 16
2019-04-11 U Кровь викинга / Viking Blood (2019) WEB-DLRip от Portablius | HDRezka Studio 744.68 MB ↑ 262 ↓ 94
2019-04-11 U Кровь викинга / Viking Blood (2019) WEB-DL 1080p от ExKinoRay | HDRezka Studio 3.24 GB ↑ 645 ↓ 228
2019-02-13 U Джордж Мартин - Пламя и кровь: Пляска смерти (2019) FB2 4.17 MB ↑ 106 ↓ 4
2018-12-29 U Чужая кровь [01-20 из 20] (2018) WEBRip от GeneralFilm 10.88 GB ↑ 55 ↓ 82
2018-12-28 U Чужая кровь [01-20 из 20] (2018) HDTVRip от GeneralFilm 12.92 GB ↑ 73 ↓ 145
2018-12-27 U Чужая кровь [01-20 из 20] (2018) SATRip-AVC 12.39 GB ↑ 3 ↓ 4

Отзывы
Зарегистрируйтесь чтобы добавить комментарий.
Обратная связь
Copyleft ©