↑↓Torrent.by
Поиск
Логин: Регистрация
Пароль: Восстановить пароль
Загрузка...

Власть / Vice (2018) BDRip-AVC от OlLanDGroup | iTunes

Скачать vlast-vice-2018-bdrip-avc-ot-ollandgroup-itunes.torrent
U Магнитная ссылка Размер: 2.07 GB Раздают: 85 Качают: 10 Добавлен: 2019-05-25 08:02:53
Власть / Vice (2018) BDRip-AVC от OlLanDGroup | iTunes

Власть / Vice
«The Untold True Story That Changed the Course of History»

Год выпуска: 2018
Страна: США
Производство: Annapurna Pictures, Gary Sanchez Productions, Plan B Entertainment
Жанр:  Драма, комедия, биография, история

Режиссёр: Адам МакКей
В ролях: Кристиан Бэйл, Эми Адамс, Стив Карелл, Сэм Рокуэлл, Элисон Пилл, Эдди Марсан, Джастин Кирк, Лиза Гэй Хэмилтон, Джесси Племонс, Билл Кэмп, Дон МакМанус, Лили Рэйб, Шей Уигэм, Стивен Эдли Гуиргис, Камилль Джеймс Харман, Джиллиан Арменанте, Мэттью Джейкобс

Перевод: Дублированный | [iTunes]
Субтитры: Русские (полные)
Реклама: Отсутствует

Описание: Когда миром управляют деньги и связи, один человек может получить безграничное влияние. Уникальный дар убеждения, незаурядный ум и доступ на самые высокие уровни власти позволили ему стать кукловодом среди сильных мира сего. Оставаясь теневым игроком, он навсегда изменил ход истории…

Качество: BDRip-AVC | BDRemux | Vice.2018.BluRay.REMUX.1080p.AVC.DTS-HD.MA5.1-iFT
Продолжительность: 02:12:27

Формат: MKV
Видео кодек: MPEG-4 AVC
Аудио кодек: AC3
Видео: 1024x428 (2.40:1), 23,976 fps, x264 ~1 794 kbps avg, 0.171 bit/pixel
Аудио #1: 48 kHz, AC3 Dolby Digital Plus, 3/2 (L,C,R,l,r) + LFE ch, ~384.00 kbps avg | RUS (iTunes)

Дата премьеры (мир): 12 декабря 2018
Дата премьеры (РФ): 21 февраля 2019, «Вольга»
Цифровой релиз: 18 апреля 2019, «Вольга»

Релиз:


[+] MediaInfo

Общее
Уникальный идентификатор                 : 277606454016320304187837434703427420655 (0xD0D90EE9C4A5BD2F1BB1B2E1E86C41EF)
Полное имя                               : F:OlLanDGroupVice.2018.BDRip(AVC).OllanDGroup.mkv
Формат                                   : Matroska
Версия формата                           : Version 4 / Version 2
Размер файла                             : 2,07 Гбайт
Продолжительность                        : 2 ч. 12 м.
Общий поток                              : 2242 Кбит/сек
Название фильма                          : Vice.2018   #TorpedoUK#
Дата кодирования                         : UTC 2019-05-24 09:39:01
Программа кодирования                    : mkvmerge v29.0.0 ('Like It Or Not') 64-bit
Библиотека кодирования                   : libebml v1.3.6 + libmatroska v1.4.9

Видео
Идентификатор                            : 1
Формат                                   : AVC
Формат/Информация                        : Advanced Video Codec
Профиль формата                          : High@L4.1
Параметр CABAC формата                   : Да
Параметр ReFrames формата                : 10 кадров
Идентификатор кодека                     : V_MPEG4/ISO/AVC
Продолжительность                        : 2 ч. 12 м.
Битрейт                                  : 1794 Кбит/сек
Ширина                                   : 1024 пикселя
Высота                                   : 428 пикселей
Соотношение сторон                       : 2,40:1
Режим частоты кадров                     : Постоянный
Частота кадров                           : 23,976 (24000/1001) кадра/сек
Цветовое пространство                    : YUV
Субдискретизация насыщенности            : 4:2:0
Битовая глубина                          : 8 бит
Тип развёртки                            : Прогрессивная
Бит/(Пиксели*Кадры)                      : 0.171
Размер потока                            : 1,66 Гбайт (80%)
Библиотека кодирования                   : x264 core 146 r2538 121396c
Настройки программы                      : cabac=1 / ref=10 / deblock=1:-3:-3 / analyse=0x3:0x113 / me=umh / subme=11 / psy=1 / psy_rd=0.98:0.04 / mixed_ref=1 / me_range=48 / chroma_me=1 / trellis=2 / 8x8dct=1 / cqm=0 / deadzone=21,11 / fast_pskip=1 / chroma_qp_offset=-3 / threads=6 / lookahead_threads=1 / sliced_threads=0 / nr=0 / decimate=1 / interlaced=0 / bluray_compat=0 / constrained_intra=0 / bframes=11 / b_pyramid=2 / b_adapt=2 / b_bias=0 / direct=3 / weightb=1 / open_gop=0 / weightp=2 / keyint=240 / keyint_min=23 / scenecut=40 / intra_refresh=0 / rc_lookahead=40 / rc=2pass / mbtree=0 / bitrate=1794 / ratetol=1.0 / qcomp=0.60 / qpmin=0 / qpmax=69 / qpstep=4 / cplxblur=20.0 / qblur=0.5 / vbv_maxrate=50000 / vbv_bufsize=62500 / nal_hrd=none / filler=0 / ip_ratio=1.40 / pb_ratio=1.30 / aq=1:1.00
Язык                                     : English
Default                                  : Да
Forced                                   : Нет

Аудио
Идентификатор                            : 2
Формат                                   : AC-3
Формат/Информация                        : Audio Coding 3
Расширение режима                        : CM (complete main)
Параметр Endianness формата              : Big
Идентификатор кодека                     : A_AC3
Продолжительность                        : 2 ч. 12 м.
Вид битрейта                             : Постоянный
Битрейт                                  : 448 Кбит/сек
Каналы                                   : 6 каналов
Расположение каналов                     : Front: L C R, Side: L R, LFE
Частота                                  : 48,0 КГц
Частота кадров                           : 31,250 кадров/сек (1536 spf)
Битовая глубина                          : 16 бит
Метод сжатия                             : С потерями
Размер потока                            : 424 Мбайт (20%)
Заголовок                                : DUB [iTunes]
Язык                                     : Russian
Default                                  : Да
Forced                                   : Нет

Текст
Идентификатор                            : 3
Формат                                   : UTF-8
Идентификатор кодека                     : S_TEXT/UTF8
Идентификатор кодека/Информация          : UTF-8 Plain Text
Продолжительность                        : 2 ч. 5 м.
Битрейт                                  : 130 бит/сек
Count of elements                        : 1735
Размер потока                            : 120 Кбайт (0%)
Заголовок                                : Full
Язык                                     : Russian
Default                                  : Нет
Forced                                   : Нет

Меню
00:00:00.000                             : :Capítulo 01
00:03:05.602                             : :Capítulo 02
00:07:50.804                             : :Capítulo 03
00:13:33.980                             : :Capítulo 04
00:19:29.919                             : :Capítulo 05
00:26:39.348                             : :Capítulo 06
00:33:10.447                             : :Capítulo 07
00:37:50.852                             : :Capítulo 08
00:42:01.728                             : :Capítulo 09
00:51:35.467                             : :Capítulo 10
00:56:00.899                             : :Capítulo 11
01:00:24.204                             : :Capítulo 12
01:06:50.548                             : :Capítulo 13
01:10:11.249                             : :Capítulo 14
01:13:14.432                             : :Capítulo 15
01:17:04.078                             : :Capítulo 16
01:23:49.149                             : :Capítulo 17
01:26:43.532                             : :Capítulo 18
01:34:42.302                             : :Capítulo 19
01:39:09.443                             : :Capítulo 20
01:44:44.987                             : :Capítulo 21
01:49:41.158                             : :Capítulo 22
01:59:18.860                             : :Capítulo 23
02:02:20.208                             : :Capítulo 24



Скриншоты:
[+] Всего файлов в раздаче - 1:
Vice.2018.BDRip(AVC).OllanDGroup.mkv2.07 GB

Показать еще раздачи по запросу власть:
2019-06-17 U Римская империя: Власть крови / Roman Empire: Reign of Blood [S02] (2018) HDTVRip | Kerob 2.44 GB ↑ 69 ↓ 18
2019-04-19 U Власть / Vice (2018) BDRemux 1080p от селезень | D, P | iTunes 31.61 GB ↑ 132 ↓ 27
2019-04-19 U Власть / Vice (2018) BDRip от Dalemake | iTunes 1.46 GB ↑ 495 ↓ 71
2019-04-18 U Власть / Vice (2018) BDRip 1080p от селезень | D, P | iTunes 14.01 GB ↑ 578 ↓ 562
2019-04-18 U Власть / Vice (2018) BDRip 720p от селезень | D, P | iTunes 4.69 GB ↑ 1175 ↓ 495
2019-03-16 U Власть / Vice (2018) WEB-DLRip от Scarabey | HDRezka Studio 1.45 GB ↑ 71 ↓ 22
2019-03-16 U Власть / Vice (2018) WEB-DLRip | HDRezka Studio 2.18 GB ↑ 57 ↓ 13

Отзывы
Зарегистрируйтесь чтобы добавить комментарий.
Обратная связь
Copyleft ©