↑↓torrent.by
Поиск
Логин: Регистрация
Пароль: Восстановить пароль

Акваланги на дне (1965) HDTVRip-AVC от New-Team

Скачать akvalangi-na-dne-1965-hdtvrip-avc-ot-new-team.torrent
U Магнитная ссылка Размер: 1.09 GB Раздают: 10 Качают: 7 Добавлен: 2021-09-07 06:12:31
Акваланги на дне (1965) HDTVRip-AVC от New-Team

Страна: СССР
Производство: К/ст им. А.Довженко

Жанр:  боевик, приключения, семейный
Год выпуска: 1965
Продолжительность: 01:20:21

Перевод: Не требуется
Cубтитры: нет
Оригинальная аудиодорожка: русский

Режиссер: Евгений Шерстобитов

В ролях:
Александр Барсов, Татьяна Клюева, Рафик Сабиров, Володя Бедункевич, Шурик Харитонов, Олег Быков (II), Геннадий Юхтин, Владимир Кисленко, В. Резчиков, А. Базанов, Лев Перфилов, Александр Гай, Альфред Шестопалов, Николай Крюков, Витольд Янпавлис, Сергей Сибель, Александра Соколова, Дмитрий Капка, Валерий Панарин, Александр Афанасьев...
Полный список актёров

Описание:
Подростка из пограничного приморского поселка Ромку Марченко, как хорошего пловца, приглашают в качестве дублера исполнителя главной роли. В первый съемочный день, Ромка замечает на пляже след нарушителя границы и сообщает об этом на заставу...


[+] MediaInfo

Общее
Полное имя                               : Akvalangi.na.dne.1966.HDTVRip-AVC_[New-team]_by_AVP_Studio.mkv
Формат                                   : Matroska
Версия формата                           : Version 2
Размер файла                             : 1,09 Гбайт
Продолжительность                        : 1 ч. 20 м.
Общий поток                              : 1 940 Кбит/сек
Дата кодирования                         : UTC 2021-05-07 08:25:32
Программа кодирования                    : mkvmerge v6.9.1 ('Blue Panther') 32bit built on Apr 18 2014 18:15:44
Библиотека кодирования                   : libebml v1.3.0 + libmatroska v1.4.1

Видео
Идентификатор                            : 1
Формат                                   : AVC
Формат/Информация                        : Advanced Video Codec
Профиль формата                          : High@L4.1
Настройки формата                        : CABAC / 10 Ref Frames
Параметр CABAC формата                   : Да
Параметр RefFrames формата               : 10 кадров
Идентификатор кодека                     : V_MPEG4/ISO/AVC
Продолжительность                        : 1 ч. 20 м.
Битрейт                                  : 1 746 Кбит/сек
Ширина                                   : 1 024 пикселя
Высота                                   : 434 пикселя
Соотношение сторон                       : 2,35:1
Режим частоты кадров                     : Постоянный
Частота кадров                           : 25,000 кадров/сек
Цветовое пространство                    : YUV
Субдискретизация насыщенности            : 4:2:0
Битовая глубина                          : 8 бит
Тип развёртки                            : Прогрессивная
Бит/(Пиксели*Кадры)                      : 0.157
Размер потока                            : 982 Мбайт (88%)
Библиотека кодирования                   : x264 core 160 r3000 33f9e14
Настройки программы                      : cabac=1 / ref=10 / deblock=1:-3:-2 / analyse=0x3:0x113 / me=umh / subme=10 / psy=1 / psy_rd=1.00:0.00 / mixed_ref=1 / me_range=32 / chroma_me=1 / trellis=2 / 8x8dct=1 / cqm=0 / deadzone=21,11 / fast_pskip=1 / chroma_qp_offset=-2 / threads=6 / lookahead_threads=1 / sliced_threads=0 / nr=0 / decimate=0 / interlaced=0 / bluray_compat=0 / constrained_intra=0 / bframes=8 / b_pyramid=2 / b_adapt=2 / b_bias=0 / direct=3 / weightb=1 / open_gop=0 / weightp=2 / keyint=250 / keyint_min=25 / scenecut=40 / intra_refresh=0 / rc_lookahead=40 / rc=2pass / mbtree=1 / bitrate=1746 / ratetol=1.0 / qcomp=0.60 / qpmin=0 / qpmax=69 / qpstep=4 / cplxblur=20.0 / qblur=0.5 / ip_ratio=1.40 / aq=1:1.00
Default                                  : Да
Forced                                   : Нет

Аудио
Идентификатор                            : 2
Формат                                   : AC-3
Формат/Информация                        : Audio Coding 3
Коммерческое название                    : Dolby Digital
Идентификатор кодека                     : A_AC3
Продолжительность                        : 1 ч. 20 м.
Вид битрейта                             : Постоянный
Битрейт                                  : 192 Кбит/сек
Каналы                                   : 2 канала
Channel layout                           : L R
Частота                                  : 48,0 КГц
Частота кадров                           : 31,250 кадров/сек (1536 SPF)
Метод сжатия                             : С потерями
Размер потока                            : 110 Мбайт (10%)
Default                                  : Да
Forced                                   : Нет



Скриншоты:
[+] Всего файлов в раздаче - 1:
Akvalangi.na.dne.1966.HDTVRip-AVC_[New-team]_by_AVP_Studio.mkv1.09 GB

Отзывы
Зарегистрируйтесь чтобы добавить комментарий.
Загрузите программу
  byTorrent
Обратная связь
Copyleft ©