↑↓Torrent.by
Поиск
Логин: Регистрация
Пароль: Восстановить пароль
Загрузка...

КВН-2019. Высшая лига. 1/4 финала. Игра третья [26.05] (2019) HDTVRip от GeneralFilm

Скачать kvn-2019-vysshaya-liga-1-4-finala-igra-tretya-26-05-hdtvrip-ot-generalfilm.torrent
U Магнитная ссылка Размер: 1.58 GB Раздают: 360 Качают: 82 Добавлен: 2019-05-27 07:35:55
КВН-2019. Высшая лига. 1/4 финала. Игра третья [26.05] (2019) HDTVRip от GeneralFilm

Год выпуска: 2019
Жанр:  Юмор
Выпущено: Россия, АМИК, Первый канал
Ведущий: Александр Масляков

О фильме: Что такое КВН - знают, без сомнения, все. В КВН играют во всем мире, это прежде всего молодежная игра. Постоянные конкурсные задания - "Визитная карточка", "Разминка", "Конкурс капитанов", "Музыкальный конкурс", "Домашнее задание". Игру команд оценивает профессиональное жюри - люди, у которых с чувством юмора все в порядке, многие из них раньше сами играли в КВН. Среди членов жюри были Константин Эрнст, Леонид Парфенов, Юлий Гусман, Леонид Ярмольник, Валдис Пельш, Сергей Шолохов, Геннадий Хазанов и другие. Кроме самих игр проводятся ежегодные встречи: фестиваль команд КВН (с 1990 г., семь раз фестиваль проходил в г.Сочи), музыкальный фестиваль КВН, летний кубок КВН, международные товарищеские игры в КВН. Сборная КВН играет со сборными других стран. Уже состоялись игры между сборной КВН и сборными Америки, Австралии, Израиля... Игра в КВН для многих становится профессией, а многие благодаря игре связывают жизнь с искусством. Из КВН "вышли": Леонид Якубович, Михаил Марфин, Татьяна Лазарева, Олег Филимонов, Юлий Гусман и многие другие.

Качество: HDTVRip
Видео: XviD, 1796 Кбит/с, 720x400, 25 кадр/с
Аудио: Русский (AC3, 2 ch, 192 Кбит/с)
Продолжительность: 01:53:01
Перевод: Не требуется
Субтитры: нет

Релиз:
[+] MediaInfo

Общее
Полное имя                               : D:KVN-2019. Vysshaja liga.1.4 finala. Igra tretja.HDTVRip.GeneralFilm.avi
Формат                                   : AVI
Формат/Информация                        : Audio Video Interleave
Размер файла                             : 1,58 Гбайт
Продолжительность                        : 1 ч. 53 м.
Общий поток                              : 1998 Кбит/сек
Программа кодирования                    : VirtualDubMod 1.5.10.3 | www.virtualdub-fr.org || (build 2550/release)
Библиотека кодирования                   : VirtualDubMod build 2550/release

Видео
Идентификатор                            : 0
Формат                                   : MPEG-4 Visual
Профиль формата                          : Advanced Simple@L5
Параметр BVOP формата                    : 1
Параметр QPel формата                    : Нет
Параметр GMC формата                     : Без точки перехода
Параметр матрицы формата                 : Выборочная
Идентификатор кодека                     : XVID
Идентификатор кодека/Подсказка           : XviD
Продолжительность                        : 1 ч. 53 м.
Битрейт                                  : 1796 Кбит/сек
Ширина                                   : 720 пикселей
Высота                                   : 400 пикселей
Соотношение сторон                       : 16:9
Частота кадров                           : 25,000 кадров/сек
Цветовое пространство                    : YUV
Субдискретизация насыщенности            : 4:2:0
Битовая глубина                          : 8 бит
Тип развёртки                            : Прогрессивная
Метод сжатия                             : С потерями
Бит/(Пиксели*Кадры)                      : 0.250
Размер потока                            : 1,42 Гбайт (90%)
Библиотека кодирования                   : XviD 1.2.1 (UTC 2008-12-04)

Аудио
Идентификатор                            : 1
Формат                                   : AC-3
Формат/Информация                        : Audio Coding 3
Расширение режима                        : CM (complete main)
Параметр Endianness формата              : Big
Идентификатор кодека                     : 2000
Продолжительность                        : 1 ч. 53 м.
Вид битрейта                             : Постоянный
Битрейт                                  : 192 Кбит/сек
Каналы                                   : 2 канала
Расположение каналов                     : Front: L R
Частота                                  : 48,0 КГц
Частота кадров                           : 31,250 кадров/сек (1536 spf)
Битовая глубина                          : 16 бит
Метод сжатия                             : С потерями
Размер потока                            : 155 Мбайт (10%)
Выравнивание                             : Разделение по промежуткам
Продолжительность промежутка             : 40  мс. (1,00 видеокадр)
Время предзагрузки промежутка            : 500  мс.




[+] Команды

«Так-то», СФУ, Красноярск
Сборная Снежногорска, Снежногорск
«Селивановы», УлГТУ, Ульяновск
«Волжане – СамГТУ», Самара
«НАТЕ», Станица Брюховецкая.



[+] Жюри

Константин Эрнст, Вячеслав Муругов, Алексей Ягудин, Валдис Пельш, Юлий Гусман.



Скриншоты:
[+] Всего файлов в раздаче - 1:
KVN-2019. Vysshaja liga.1.4 finala. Igra tretja.HDTVRip.GeneralFilm.avi1.58 GB

Показать еще раздачи по запросу высшая:
2019-05-27 U КВН-2019. Высшая лига. 1/4 финала. Игра третья [26.05] (2019) HDTV 1080i от GeneralFilm 1К9.20 GB ↑ 160 ↓ 37
2019-05-26 U КВН-2019. Высшая лига. 1/4 финала. Игра третья [26.05] (2019) SATRip 1.51 GB ↑ 227 ↓ 176
2019-05-13 U КВН-2019. Высшая лига. 1/4 финала. Игра вторая [12.05] (2019) HDTV 1080i от GeneralFilm 8.99 GB ↑ 113 ↓ 26
2019-05-13 U КВН-2019. Высшая лига. 1/4 финала. Игра вторая [12.05] (2019) HDTVRip от GeneralFilm 1.53 GB ↑ 191 ↓ 58
2019-05-12 U КВН-2019. Высшая лига. 1/4 финала. Игра вторая [12.05] (2019) SATRip 1.46 GB ↑ 1059 ↓ 410
2019-05-03 U КВН-2019. Высшая лига. 1/4 финала. Игра первая [28.04] (2019) WEBRip 720p 3.31 GB ↑ 312 ↓ 190
2019-04-02 U КВН-2019. Высшая лига. 1/8 финала. Игра четвертая [31.03] (2019) WEBRip 1080p 3.32 GB ↑ 406 ↓ 86

Отзывы
Зарегистрируйтесь чтобы добавить комментарий.
Обратная связь
Copyleft ©