↑↓Torrent.by
Поиск
Логин: Регистрация
Пароль: Восстановить пароль
Загрузка...

КВН-2019. Высшая лига. 1/4 финала. Игра третья [26.05] (2019) HDTV 1080i от GeneralFilm

Скачать kvn-2019-vysshaya-liga-1-4-finala-igra-tretya-26-05-hdtv-1080i-ot-generalfilm.torrent
U Магнитная ссылка Размер: 9.20 GB Раздают: 161 Качают: 37 Добавлен: 2019-05-27 07:36:11
КВН-2019. Высшая лига. 1/4 финала. Игра третья  [26.05] (2019) HDTV 1080i от GeneralFilm

Год выпуска: 2019
Жанр:  Юмор
Выпущено: Россия, АМИК, Первый канал
Ведущий: Александр Масляков

О фильме: Что такое КВН - знают, без сомнения, все. В КВН играют во всем мире, это прежде всего молодежная игра. Постоянные конкурсные задания - "Визитная карточка", "Разминка", "Конкурс капитанов", "Музыкальный конкурс", "Домашнее задание". Игру команд оценивает профессиональное жюри - люди, у которых с чувством юмора все в порядке, многие из них раньше сами играли в КВН. Среди членов жюри были Константин Эрнст, Леонид Парфенов, Юлий Гусман, Леонид Ярмольник, Валдис Пельш, Сергей Шолохов, Геннадий Хазанов и другие. Кроме самих игр проводятся ежегодные встречи: фестиваль команд КВН (с 1990 г., семь раз фестиваль проходил в г.Сочи), музыкальный фестиваль КВН, летний кубок КВН, международные товарищеские игры в КВН. Сборная КВН играет со сборными других стран. Уже состоялись игры между сборной КВН и сборными Америки, Австралии, Израиля... Игра в КВН для многих становится профессией, а многие благодаря игре связывают жизнь с искусством. Из КВН "вышли": Леонид Якубович, Михаил Марфин, Татьяна Лазарева, Олег Филимонов, Юлий Гусман и многие другие.

Качество: HDTV (1080i)
Видео: MPEG-TS AVC, 10.5 Мбит/с, 1920x1080
Аудио: Русский (AC3, 2 ch, 384 Кбит/с), (MP2, 2 ch, 192 Кбит/с)
Продолжительность: 01:53:01
Перевод: Не требуется
Субтитры: нет

Релиз:
[+] MediaInfo

Общее
Идентификатор                            : 1 (0x1)
Полное имя                               : D:ЗаписьKVN-2019. Vysshaja liga.1.4 finala. Igra tretja.HDTV(1080i).GeneralFilm.ts
Формат                                   : MPEG-TS
Размер файла                             : 9,20 Гбайт
Продолжительность                        : 1 ч. 53 м.
Режим общего битрейта                    : Переменный
Общий поток                              : 11,7 Мбит/сек

Видео
Идентификатор                            : 1904 (0x770)
Идентификатор меню                       : 80 (0x50)
Формат                                   : AVC
Формат/Информация                        : Advanced Video Codec
Профиль формата                          : High@L4
Параметр CABAC формата                   : Да
Параметр ReFrames формата                : 3 кадра
Идентификатор кодека                     : 27
Продолжительность                        : 1 ч. 53 м.
Битрейт                                  : 10,5 Мбит/сек
Ширина                                   : 1920 пикселей
Высота                                   : 1080 пикселей
Соотношение сторон                       : 16:9
Частота кадров                           : 25,000 кадров/сек
Стандарт вещания                         : Component
Цветовое пространство                    : YUV
Субдискретизация насыщенности            : 4:2:0
Битовая глубина                          : 8 бит
Тип развёртки                            : Чересстрочная
Метод сохранения типа развёртки          : Раздельные поля
Порядок развёртки                        : Верхнее поле первое
Бит/(Пиксели*Кадры)                      : 0.202
Размер потока                            : 8,29 Гбайт (90%)
Цветовой диапазон                        : Limited
Основные цвета                           : BT.709
Характеристики трансфера                 : BT.709
Коэффициенты матрицы                     : BT.709

Аудио #1
Идентификатор                            : 2904 (0xB58)
Идентификатор меню                       : 80 (0x50)
Формат                                   : AC-3
Формат/Информация                        : Audio Coding 3
Расширение режима                        : CM (complete main)
Параметр Endianness формата              : Big
Идентификатор кодека                     : 6
Продолжительность                        : 1 ч. 53 м.
Вид битрейта                             : Постоянный
Битрейт                                  : 384 Кбит/сек
Каналы                                   : 6 каналов
Расположение каналов                     : Front: L C R, Side: L R, LFE
Частота                                  : 48,0 КГц
Частота кадров                           : 31,250 кадров/сек (1536 spf)
Битовая глубина                          : 16 бит
Метод сжатия                             : С потерями
Размер потока                            : 310 Мбайт (3%)
Язык                                     : Russian

Аудио #2
Идентификатор                            : 2905 (0xB59)
Идентификатор меню                       : 80 (0x50)
Формат                                   : MPEG Audio
Версия формата                           : Version 1
Профиль формата                          : Layer 2
Идентификатор кодека                     : 3
Продолжительность                        : 1 ч. 53 м.
Вид битрейта                             : Постоянный
Битрейт                                  : 192 Кбит/сек
Каналы                                   : 2 канала
Частота                                  : 48,0 КГц
Метод сжатия                             : С потерями
Размер потока                            : 155 Мбайт (2%)
Язык                                     : Russian




[+] Команды

«Так-то», СФУ, Красноярск
Сборная Снежногорска, Снежногорск
«Селивановы», УлГТУ, Ульяновск
«Волжане – СамГТУ», Самара
«НАТЕ», Станица Брюховецкая



[+] Жюри

Константин Эрнст, Вячеслав Муругов, Алексей Ягудин, Валдис Пельш, Юлий Гусман.



Скриншоты:
[+] Всего файлов в раздаче - 1:
KVN-2019. Vysshaja liga.1.4 finala. Igra tretja.HDTV(1080i).GeneralFilm.ts9.20 GB

Показать еще раздачи по запросу высшая:
2019-05-27 U КВН-2019. Высшая лига. 1/4 финала. Игра третья [26.05] (2019) HDTVRip от GeneralFilm 1.58 GB ↑ 349 ↓ 82
2019-05-26 U КВН-2019. Высшая лига. 1/4 финала. Игра третья [26.05] (2019) SATRip 1.51 GB ↑ 204 ↓ 176
2019-05-13 U КВН-2019. Высшая лига. 1/4 финала. Игра вторая [12.05] (2019) HDTV 1080i от GeneralFilm 8.99 GB ↑ 112 ↓ 26
2019-05-13 U КВН-2019. Высшая лига. 1/4 финала. Игра вторая [12.05] (2019) HDTVRip от GeneralFilm 1.53 GB ↑ 180 ↓ 58
2019-05-12 U КВН-2019. Высшая лига. 1/4 финала. Игра вторая [12.05] (2019) SATRip 1.46 GB ↑ 1035 ↓ 410
2019-05-03 U КВН-2019. Высшая лига. 1/4 финала. Игра первая [28.04] (2019) WEBRip 720p 3.31 GB ↑ 311 ↓ 190
2019-04-02 U КВН-2019. Высшая лига. 1/8 финала. Игра четвертая [31.03] (2019) WEBRip 1080p 3.32 GB ↑ 387 ↓ 86

Отзывы
realtroffy
релизы то позже, то чуть раньше, то теперь и супер рано, качается быстро, гляну без рекламы

Зарегистрируйтесь чтобы добавить комментарий.
Обратная связь
Copyleft ©