↑↓Torrent.by
Поиск
Логин: Регистрация
Пароль: Восстановить пароль
Загрузка...

Позвоните Мышкину (2018) WEB-DLRip-AVC от GeneralFilm | iTunes

Скачать pozvonite-myshkinu-2018-web-dlrip-avc-ot-generalfilm-itunes.torrent
U Магнитная ссылка Размер: 1.17 GB Раздают: 70 Качают: 30 Добавлен: 2019-05-27 07:37:22
Позвоните Мышкину (2018) WEB-DLRip-AVC от GeneralFilm | iTunes

Год выпуска: 2018
Жанр:  Комедия
Выпущено: Россия
Режиссер: Илья Казанков
В ролях: Михаил Трухин, Ярослава Базаева, Ирина Пегова, Елена Валюшкина, Роман Шаляпин, Константин Воробьёв, Иван Ефремов (II), Маша Уросова, Александр Плаксин, Александр Куйкка, Мария Поезжаева,  Никита Белозёров, Евгений Капитонов, Сергей Лосев, Ирина Ракшина, Анатолий Горин, Валерия Шкирандо, Сергей Бурунов, Марчин Руй, Михаил Пореченков, Юрий Ицков, Олег Фёдоров (III), Маша Полиенко

О фильме: Главный герой фильма Ермак Мышкин — крайне неуверенный в себе человек, который всю жизнь хотел стать актёром. Помочь в исполнении его мечты берётся 8-летняя девочка Даша, которая преследует и свои цели: ей очень хочется выйти из тени своей звёздной мамы, ведь та не обращает на дочь никакого внимания. Даша предлагает Ермаку отправиться из Петербурга в Москву на кастинг нового мюзикла, при этом "путешествие" должно выглядеть так, будто Ермак похитил девочку...

Качество: WEB-DLRip-AVC
Видео: XviD, 1600 Кбит/с, 1024x552, 24 fps
Аудио: Русский (AC3, 6 ch, 384 Кбит/с)
Продолжительность: 01:24:38
Перевод: Не требуется [iTunes]
Субтитры: нет

Релиз:


[+] MediaInfo

Общее
Уникальный идентификатор                 : 250730761914923837840324029971990435339 (0xBCA0FCFCF9B20ADAA410B8AD1D51D60B)
Полное имя                               : D:Pozvonite Myshkinu.WEB-DLRip.(AVC).GeneralFilm.mkv
Формат                                   : Matroska
Версия формата                           : Version 2
Размер файла                             : 1,17 Гбайт
Продолжительность                        : 1 ч. 24 м.
Общий поток                              : 1986 Кбит/сек
Дата кодирования                         : UTC 2019-05-27 01:50:27
Программа кодирования                    : mkvmerge v7.8.0 ('River Man') 32bit built on Apr  3 2015 12:11:22
Библиотека кодирования                   : libebml v1.3.1 + libmatroska v1.4.2

Видео
Идентификатор                            : 1
Формат                                   : AVC
Формат/Информация                        : Advanced Video Codec
Профиль формата                          : High@L4.1
Параметр CABAC формата                   : Да
Параметр ReFrames формата                : 9 кадров
Идентификатор кодека                     : V_MPEG4/ISO/AVC
Продолжительность                        : 1 ч. 24 м.
Битрейт                                  : 1600 Кбит/сек
Ширина                                   : 1024 пикселя
Высота                                   : 552 пикселя
Соотношение сторон                       : 1,85:1
Режим частоты кадров                     : Постоянный
Частота кадров                           : 24,000 кадра/сек
Цветовое пространство                    : YUV
Субдискретизация насыщенности            : 4:2:0
Битовая глубина                          : 8 бит
Тип развёртки                            : Прогрессивная
Бит/(Пиксели*Кадры)                      : 0.118
Размер потока                            : 946 Мбайт (79%)
Библиотека кодирования                   : x264 core 146 r2538 121396c
Настройки программы                      : cabac=1 / ref=9 / deblock=1:-2:-1 / analyse=0x3:0x113 / me=umh / subme=9 / psy=1 / psy_rd=1.00:0.15 / mixed_ref=1 / me_range=32 / chroma_me=1 / trellis=2 / 8x8dct=1 / cqm=0 / deadzone=21,11 / fast_pskip=0 / chroma_qp_offset=-3 / threads=18 / lookahead_threads=3 / sliced_threads=0 / nr=0 / decimate=1 / interlaced=0 / bluray_compat=0 / constrained_intra=0 / bframes=9 / b_pyramid=2 / b_adapt=2 / b_bias=0 / direct=3 / weightb=1 / open_gop=0 / weightp=2 / keyint=250 / keyint_min=23 / scenecut=40 / intra_refresh=0 / rc_lookahead=40 / rc=2pass / mbtree=0 / bitrate=1600 / ratetol=1.0 / qcomp=0.60 / qpmin=0 / qpmax=69 / qpstep=4 / cplxblur=20.0 / qblur=0.5 / vbv_maxrate=14000 / vbv_bufsize=14000 / nal_hrd=none / filler=0 / ip_ratio=1.40 / pb_ratio=1.30 / aq=2:1.00
Default                                  : Да
Forced                                   : Нет
Цветовой диапазон                        : Limited
Основные цвета                           : BT.709
Характеристики трансфера                 : BT.709
Коэффициенты матрицы                     : BT.709

Аудио
Идентификатор                            : 2
Формат                                   : AC-3
Формат/Информация                        : Audio Coding 3
Расширение режима                        : CM (complete main)
Параметр Endianness формата              : Big
Идентификатор кодека                     : A_AC3
Продолжительность                        : 1 ч. 24 м.
Вид битрейта                             : Постоянный
Битрейт                                  : 384 Кбит/сек
Каналы                                   : 6 каналов
Расположение каналов                     : Front: L C R, Side: L R, LFE
Частота                                  : 48,0 КГц
Частота кадров                           : 31,250 кадров/сек (1536 spf)
Битовая глубина                          : 16 бит
Метод сжатия                             : С потерями
Размер потока                            : 232 Мбайт (19%)
Default                                  : Да
Forced                                   : Нет




Скриншоты:
[+] Всего файлов в раздаче - 1:
Pozvonite Myshkinu.WEB-DLRip.(AVC).GeneralFilm.mkv1.17 GB

Похожие раздачи по запросу - позвоните:
2019-05-28 U Позвоните Мышкину (2018) WEB-DLRip от Portablius 751.34 MB ↑ 77 ↓ 11
2019-05-27 U Позвоните Мышкину (2018) WEB-DL 1080p 3.28 GB ↑ 81 ↓ 34
2019-05-27 U Позвоните Мышкину (2018) WEB-DLRip 1.46 GB ↑ 69 ↓ 39

Отзывы
Зарегистрируйтесь чтобы добавить комментарий.
Обратная связь
Copyleft ©