↑↓Torrent.by
Поиск
Логин: Регистрация
Пароль: Восстановить пароль
Загрузка...

Позвоните Мышкину (2018) WEB-DLRip

Скачать pozvonite-myshkinu-2018-web-dlrip.torrent
U Магнитная ссылка Размер: 1.46 GB Раздают: 69 Качают: 39 Добавлен: 2019-05-27 10:44:19
Позвоните Мышкину (2018) WEB-DLRip

Позвоните Мышкину

Страна: Россия
Год выпуска: 2018
Жанр:  комедия
Продолжительность: 01:24:38

Режиссер: Илья Казанков
В ролях: Михаил Трухин, Ярослава Базаева, Ирина Пегова, Михаил Пореченков, Иван Ефремов, Василий Юркевич, Маша Уросова, Полина Руденко

Описание: Ермак Мышкин — крайне неуверенный в себе человек, который всю жизнь хотел стать актёром. Помочь в исполнении его мечты берётся 8-летняя девочка Даша, которая преследует и свои цели: ей очень хочется выйти из тени своей звёздной мамы, ведь та не обращает на дочь никакого внимания. Даша предлагает Ермаку отправиться из Петербурга в Москву на кастинг нового мюзикла, при этом «путешествие» должно выглядеть так, будто Ермак похитил девочку…

Перевод: не требуется (оригинал)
Субтитры: нет

Качество: WEB-DLRip
Формат: AVI
Видео кодек: XviD
Аудио кодек: АС3
Видео: 720x384 (1.85:1), 24.000 fps, XviD build 73 ~2 077 kbps avg
Аудио: 48.0 kHz, AC3 Dolby Digital, 3/2 (L,C,R,l,r) + LFE ch, ~384 kbps

Релиз от: Pigy


[+] Media Info
General
Complete name : Позвоните Мышкину 2018 WEB-DLRip.avi
Format : AVI
Format/Info : Audio Video Interleave
File size : 1.46 GiB
Duration : 1 h 24 min
Overall bit rate : 2 471 kb/s
Writing application : VirtualDubMod 1.5.10.3 | www.virtualdub-fr.org || (build 2550/release)
Writing library : VirtualDubMod build 2550/release

Video
ID : 0
Format : MPEG-4 Visual
Format profile : Advanced Simple@L5
Format settings : BVOP1
Format settings, BVOP : 1
Format settings, QPel : No
Format settings, GMC : No warppoints
Format settings, Matrix : Default (MPEG)
Codec ID : XVID
Codec ID/Hint : XviD
Duration : 1 h 24 min
Bit rate : 2 077 kb/s
Width : 720 pixels
Height : 384 pixels
Display aspect ratio : 1.85:1
Frame rate : 24.000 FPS
Color space : YUV
Chroma subsampling : 4:2:0
Bit depth : 8 bits
Scan type : Progressive
Compression mode : Lossy
Bits/(Pixel*Frame) : 0.313
Stream size : 1.23 GiB (84%)
Writing library : XviD 73

Audio
ID : 1
Format : AC-3
Format/Info : Audio Coding 3
Codec ID : 2000
Duration : 1 h 24 min
Bit rate mode : Constant
Bit rate : 384 kb/s
Channel(s) : 6 channels
Channel positions : Front: L C R, Side: L R, LFE
Sampling rate : 48.0 kHz
Frame rate : 31.250 FPS (1536 SPF)
Bit depth : 16 bits
Compression mode : Lossy
Stream size : 232 MiB (16%)
Alignment : Split accross interleaves
Interleave, duration : 42 ms (1.00 video frame)
Interleave, preload duratio : 500 ms
Service kind : Complete Main



Скриншоты:
[+] Всего файлов в раздаче - 1:
Позвоните Мышкину 2018 WEB-DLRip.avi1.46 GB

Похожие раздачи по запросу - позвоните:
2019-05-28 U Позвоните Мышкину (2018) WEB-DLRip от Portablius 751.34 MB ↑ 77 ↓ 11
2019-05-27 U Позвоните Мышкину (2018) WEB-DL 1080p 3.28 GB ↑ 81 ↓ 34
2019-05-27 U Позвоните Мышкину (2018) WEB-DLRip-AVC от GeneralFilm | iTunes 1.17 GB ↑ 70 ↓ 30

Отзывы
Зарегистрируйтесь чтобы добавить комментарий.
Обратная связь
Copyleft ©