↑↓Torrent.by
Поиск
Логин: Регистрация
Пароль: Восстановить пароль
Загрузка...

Позвоните Мышкину (2018) WEB-DL 1080p

Скачать pozvonite-myshkinu-2018-web-dl-1080p.torrent
U Магнитная ссылка Размер: 3.28 GB Раздают: 89 Качают: 34 Добавлен: 2019-05-27 10:44:25
Позвоните Мышкину (2018) WEB-DL 1080p

Позвоните Мышкину

Страна: Россия
Год выпуска: 2018
Жанр:  комедия
Продолжительность: 01:24:38

Режиссер: Илья Казанков
В ролях: Михаил Трухин, Ярослава Базаева, Ирина Пегова, Михаил Пореченков, Иван Ефремов, Василий Юркевич, Маша Уросова, Полина Руденко

Описание: Ермак Мышкин — крайне неуверенный в себе человек, который всю жизнь хотел стать актёром. Помочь в исполнении его мечты берётся 8-летняя девочка Даша, которая преследует и свои цели: ей очень хочется выйти из тени своей звёздной мамы, ведь та не обращает на дочь никакого внимания. Даша предлагает Ермаку отправиться из Петербурга в Москву на кастинг нового мюзикла, при этом «путешествие» должно выглядеть так, будто Ермак похитил девочку…

Перевод: не требуется (оригинал)
Субтитры: нет

Качество: WEB-DL 1080p
Формат: MKV
Видео кодек: AVC
Аудио кодек: AC3
Видео: 1920x1038 (1.85:1), 24.000 fps, MPEG-4 AVC ~5 053 kbps avg
Аудио: 48.0 kHz, AC3 Dolby Digital, 3/2 (L,C,R,l,r) + LFE ch, ~384 kbps


[+] Media Info
General
Unique ID : 184865998329014444443905524627765012067 (0x8B13E56C952528A2920110AF2AD92663)
Complete name : Call.Myshkin.2018.WEB-DL.1080p.ELEKTRI4KA.UNIONGANG.mkv
Format : Matroska
Format version : Version 2
File size : 3.28 GiB
Duration : 1 h 24 min
Overall bit rate : 5 548 kb/s
Movie name : Call.Myshkin.2018.ELEKTRI4KA.UNIONGANG
Encoded date : UTC 2019-05-26 18:27:19
Writing application : mkvmerge v7.8.0 ('River Man') 32bit built on Apr 3 2015 12:11:22
Writing library : libebml v1.3.1 + libmatroska v1.4.2

Video
ID : 2
Format : AVC
Format/Info : Advanced Video Codec
Format profile : High@L4
Format settings : CABAC / 4 Ref Frames
Format settings, CABAC : Yes
Format settings, ReFrames : 4 frames
Codec ID : V_MPEG4/ISO/AVC
Duration : 1 h 24 min
Bit rate : 5 053 kb/s
Width : 1 920 pixels
Height : 1 038 pixels
Display aspect ratio : 1.85:1
Frame rate mode : Constant
Frame rate : 24.000 FPS
Color space : YUV
Chroma subsampling : 4:2:0
Bit depth : 8 bits
Scan type : Progressive
Bits/(Pixel*Frame) : 0.106
Stream size : 2.99 GiB (91%)
Language : English
Default : Yes
Forced : No
Color range : Limited
Color primaries : BT.709
Transfer characteristics : BT.709
Matrix coefficients : BT.709

Audio
ID : 1
Format : AC-3
Format/Info : Audio Coding 3
Codec ID : A_AC3
Duration : 1 h 24 min
Bit rate mode : Constant
Bit rate : 384 kb/s
Channel(s) : 6 channels
Channel positions : Front: L C R, Side: L R, LFE
Sampling rate : 48.0 kHz
Frame rate : 31.250 FPS (1536 SPF)
Bit depth : 16 bits
Compression mode : Lossy
Stream size : 232 MiB (7%)
Title : RUS.ELEKTRI4KA.UNIONGANG
Language : Russian
Service kind : Complete Main
Default : Yes
Forced : No

Menu
00:00:00.000 : en:Глава 1
00:05:08.958 : en:Глава 2
00:11:47.708 : en:Глава 3
00:16:35.373 : en:Глава 4
00:24:30.248 : en:Глава 5
00:33:10.705 : en:Глава 6
00:40:02.705 : en:Глава 7
00:49:13.288 : en:Глава 8
00:58:26.871 : en:Глава 9
01:06:58.704 : en:Глава 10
01:14:39.786 : en:Глава 11



Скриншоты:
[+] Всего файлов в раздаче - 1:
Call.Myshkin.2018.WEB-DL.1080p.ELEKTRI4KA.UNIONGANG.mkv3.28 GB

Похожие раздачи по запросу - позвоните:
2019-05-28 U Позвоните Мышкину (2018) WEB-DLRip от Portablius 751.34 MB ↑ 79 ↓ 11
2019-05-27 U Позвоните Мышкину (2018) WEB-DLRip 1.46 GB ↑ 69 ↓ 39
2019-05-27 U Позвоните Мышкину (2018) WEB-DLRip-AVC от GeneralFilm | iTunes 1.17 GB ↑ 70 ↓ 30

Отзывы
Зарегистрируйтесь чтобы добавить комментарий.
Обратная связь
Copyleft ©