↑↓Torrent.by
Поиск
Логин: Регистрация
Пароль: Восстановить пароль
Загрузка...

Трезвый водитель (2018) WEB-DLRip-AVC от ExKinoRay | iTunes

Скачать trezvyy-voditel-2018-web-dlrip-avc-ot-exkinoray-itunes.torrent
U Магнитная ссылка Размер: 746.36 MB Раздают: 59 Качают: 17 Добавлен: 2019-05-27 10:44:35
Трезвый водитель (2018) WEB-DLRip-AVC от ExKinoRay | iTunes

Название: Трезвый водитель
Год выпуска: 2018
Жанр:  Комедия, приключения
Режиссер: Резо Гигинеишвили
В ролях: Андрей Бурковский, Виктор Хориняк, Ирина Мартыненко, Янина Студилина

О фильме:
В центре сюжета фильма находится простой провинциальный юноша Артем. Он приехал в столицу за новой роскошной жизнью, но пока ему приходится устроиться не на самую престижную работу – трезвого водителя. В первую же смену он отвозит в отель пьяную девушку Кристину и по нелепому стечению обстоятельств проводит с ней ночь в номере. Утром Кристина, которая естественно не помнит события предыдущего вечера, принимает Артема за молодого миллионера и парень не спешит ее расстраивать. Чем дальше развиваются их отношения, тем больше Артем влюбляется в Кристину, но и скрывать свое истинное происхождение герою все сложнее.

Страна: Россия
Студия: Кинокомпания «Небо», Yellow, Black & White
Продолжительность: 01:40:05
Язык: Русский | iTunes

Файл
Формат: MKV
Качество: WEB-DLRip-AVC
Видео: MPEG-4 AVC, 792x332, - 965 Кбит/с
Аудио:  AAC-HE, 2 ch, - 76 Кбит/с
Субтитры: Нет


[+] MI
Общее
Уникальный идентификатор : 140989902461144759443611933611669339621 (0x6A11AAE1520158A5846C92023C183DE5)
Полное имя : D:MOVIESTrezvyj.voditel.2018.ExKinoRay.mkv
Формат : Matroska
Версия формата : Version 4 / Version 2
Размер файла : 746 Мбайт
Продолжительность : 1 ч. 40 м.
Общий поток : 1043 Кбит/сек
Дата кодирования : UTC 2019-05-26 16:52:05
Программа кодирования : mkvmerge v32.0.0 ('Astral Progressions') 64-bit
Библиотека кодирования : libebml v1.3.7 + libmatroska v1.5.0

Видео
Идентификатор : 1
Формат : AVC
Формат/Информация : Advanced Video Codec
Профиль формата : High@L4.1
Параметр CABAC формата : Да
Параметр RefFrames формата : 12 кадров
Идентификатор кодека : V_MPEG4/ISO/AVC
Продолжительность : 1 ч. 40 м.
Битрейт : 965 Кбит/сек
Ширина : 792 пикселя
Высота : 332 пикселя
Соотношение сторон : 2,40:1
Режим частоты кадров : Постоянный
Частота кадров : 24,000 кадра/сек
Цветовое пространство : YUV
Субдискретизация насыщенности : 4:2:0
Битовая глубина : 8 бит
Тип развёртки : Прогрессивная
Бит/(Пиксели*Кадры) : 0.153
Размер потока : 691 Мбайт (93%)
Библиотека кодирования : x264 core 152 r2851kMod ba24899
Настройки программы : cabac=1 / ref=12 / deblock=1:-3:-3 / analyse=0x3:0x133 / me=umh / subme=10 / psy=1 / fade_compensate=0.00 / psy_rd=1.00:0.12 / mixed_ref=1 / me_range=32 / chroma_me=1 / trellis=2 / 8x8dct=1 / cqm=0 / deadzone=21,11 / fast_pskip=0 / chroma_qp_offset=-3 / threads=6 / lookahead_threads=1 / sliced_threads=0 / nr=0 / decimate=0 / interlaced=0 / bluray_compat=0 / constrained_intra=0 / bframes=12 / b_pyramid=2 / b_adapt=2 / b_bias=0 / direct=3 / weightb=1 / open_gop=0 / weightp=2 / keyint=240 / keyint_min=24 / scenecut=40 / intra_refresh=0 / rc_lookahead=40 / rc=2pass / mbtree=1 / bitrate=965 / ratetol=1.0 / qcomp=0.60 / qpmin=0 / qpmax=69 / qpstep=4 / cplxblur=20.0 / qblur=0.5 / ip_ratio=1.40 / aq=3:1.00
Default : Да
Forced : Нет

Аудио
Идентификатор : 2
Формат : AAC
Формат/Информация : Advanced Audio Codec
Профиль формата : HE-AAC / LC
Идентификатор кодека : A_AAC
Продолжительность : 1 ч. 40 м.
Битрейт : 76,0 Кбит/сек
Каналы : 2 канала
Расположение каналов : Front: L R
Частота : 48,0 КГц / 24,0 КГц
Частота кадров : 23,438 кадра/сек (1024 SPF)
Метод сжатия : С потерями
Задержка видео : 31 мс.
Размер потока : 54,4 Мбайт (7%)
Default : Да
Forced : Нет

Меню
00:00:00.000 : en:Глава 1
00:04:50.208 : en:Глава 2
00:12:47.833 : en:Глава 3
00:22:35.249 : en:Глава 4
00:29:57.957 : en:Глава 5
00:35:22.040 : en:Глава 6
00:43:10.498 : en:Глава 7
00:49:09.873 : en:Глава 8
00:56:10.664 : en:Глава 9
01:00:34.164 : en:Глава 10
01:06:29.455 : en:Глава 11
01:12:24.912 : en:Глава 12
01:18:47.369 : en:Глава 13
01:24:58.326 : en:Глава 14
01:30:23.701 : en:Глава 15



Скриншоты:
[+] Всего файлов в раздаче - 1:
Trezvyj.voditel.2018.ExKinoRay.mkv746.36 MB

Похожие раздачи по запросу - трезвый:
2019-04-28 U Трезвый водитель (2018) WEB-DLRip от Scarabey | iTunes 1.45 GB ↑ 134 ↓ 46
2019-04-26 U Трезвый водитель (2018) WEB-DLRip-AVC от Files-х | iTunes 1.37 GB ↑ 327 ↓ 152
2019-04-26 U Трезвый водитель (2018) WEB-DLRip от GeneralFilm | iTunes 745.87 MB ↑ 139 ↓ 48
2019-04-26 U Трезвый водитель (2018) WEB-DLRip от MegaPeer | iTunes 1.46 GB ↑ 225 ↓ 126
2019-04-26 U Трезвый водитель (2018) WEB-DL 1080p | iTunes 3.46 GB ↑ 314 ↓ 130

Отзывы
Зарегистрируйтесь чтобы добавить комментарий.
Обратная связь
Copyleft ©