↑↓Torrent.by
Поиск
Логин: Регистрация
Пароль: Восстановить пароль
Загрузка...

Прячься! (2010) DVDRip

Скачать pryachsya-2010-dvdrip.torrent
U Магнитная ссылка Размер: 746.02 MB Раздают: 90 Качают: 21 Добавлен: 2019-05-27 15:52:52
Прячься! (2010) DVDRip

Название: Прячься!
Год выхода: 2010
Жанр: триллер
Режиссер: Джонни О’Рейли / Johnny O'Reilly
В ролях: Сергей Гармаш, Алексей Гуськов, Петр Логачев, Антон Шагин, Марина Александрова, Егор Пазенко, Сергей Юшкевич, Владимир Гусев

О фильме:
На затерянной высоко в горах метеостанции несут службу несколько человек. Однажды они перестают выходить на связь, руководство высылает на станцию спасателей, которые находят распахнутые настежь двери, еще теплые угли в котельной, неработающую радиостанцию — и никого.

Подозреваются все, кто находился на станции: двое метеорологов с безупречным послужным списком и странными увлечениями: один помешан на поисках снежного человека, другой часами просиживает над сооружением из спичек копий памятников архитектуры; их помощник 19-летний Ромаш, умеющий исчезать и прятаться так, что никто не может найти; а так же появившиеся накануне в окрестностях станции двое спелеологов-любителей: красавица Ирина и ее муж Вадим.

Страна: Россия, Германия
Продолжительность: 01:19:52
Перевод: Не требуется

Файл
Кодек: XviD / MP3
Качество: DVDRip
Видео: XviD, 720x320 (2.25:1), 25.000 fps, 1 171 Kbps (0.203 bit/pixel)
Звук: MP3, 48.0 KHz, 2 ch, 128 Kbps, CBR (Russian)


[+] MediaInfo
General
Complete name                    : E:Прячься!_DVDRip.745_[Rutor.org].avi
Format                           : AVI
Format/Info                      : Audio Video Interleave
File size                        : 746 MiB
Duration                         : 1h 19mn
Overall bit rate                 : 1 306 Kbps
Writing application              : VirtualDubMod 1.5.4.1 (build 2178/release)
Writing library                  : VirtualDubMod build 2178/release

Video
ID                               : 0
Format                           : MPEG-4 Visual
Format profile                   : Advanced Simple@L5
Format settings, BVOP            : No
Format settings, QPel            : No
Format settings, GMC             : No warppoints
Format settings, Matrix          : Custom
Codec ID                         : XVID
Codec ID/Hint                    : XviD
Duration                         : 1h 19mn
Bit rate                         : 1 171 Kbps
Width                            : 720 pixels
Height                           : 320 pixels
Display aspect ratio             : 2.25:1
Frame rate                       : 25.000 fps
Color space                      : YUV
Chroma subsampling               : 4:2:0
Bit depth                        : 8 bits
Scan type                        : Progressive
Compression mode                 : Lossy
Bits/(Pixel*Frame)               : 0.203
Stream size                      : 669 MiB (90%)
Writing library                  : XviD 64

Audio
ID                               : 1
Format                           : MPEG Audio
Format version                   : Version 1
Format profile                   : Layer 3
Mode                             : Joint stereo
Mode extension                   : MS Stereo
Codec ID                         : 55
Codec ID/Hint                    : MP3
Duration                         : 1h 19mn
Bit rate mode                    : Constant
Bit rate                         : 128 Kbps
Channel(s)                       : 2 channels
Sampling rate                    : 48.0 KHz
Compression mode                 : Lossy
Stream size                      : 73.1 MiB (10%)
Alignment                        : Aligned on interleaves
Interleave, duration             : 80 ms (2.00 video frames)
Interleave, preload duration     : 504 ms
Writing library                  : LAME3.99r
Encoding settings                : -m j -V 4 -q 2 -lowpass 17 -b 128
Language                         : Russian




Скриншоты:
[+] Всего файлов в раздаче - 1:
Прячься!_DVDRip.745_[Rutor.org].avi746.02 MB

Похожие раздачи по запросу - прячься:
2019-05-28 U Прячься! (2010) HDTVRip 1.37 GB ↑ 73 ↓ 28
2019-05-28 U Прячься! (2010) HDTVRip 720p 2.77 GB ↑ 33 ↓ 20
2018-09-30 U Прячься на свету / Hide in the Light (2018) HDRip-AVC | L2 1.06 GB ↑ 69 ↓ 13

Отзывы
Зарегистрируйтесь чтобы добавить комментарий.
Обратная связь
Copyleft ©