↑↓Torrent.by
Поиск
Логин: Регистрация
Пароль: Восстановить пароль
Загрузка...

Особо опасны / Savages (2012) BDRip 720p | D | Unrated Cut

Скачать osobo-opasny-savages-2012-bdrip-720p-d-unrated-cut.torrent
U Магнитная ссылка Размер: 4.37 GB Раздают: 66 Качают: 12 Добавлен: 2019-05-28 05:40:51
Особо опасны  / Savages  (2012) BDRip 720p | D | Unrated Cut

Название: Особо опасны
Оригинальное название: Savages
Год выхода: 2012
Жанр: Триллер, драма, криминал
Режиссер:  Оливер Стоун
В ролях:  Тейлор Китч, Блэйк Лайвли, Аарон Тейлор-Джонсон, Джон Траволта, Бенисио Дель Торо, Сальма Хайек, Эмиль Хирш, Демиан Бишир, Антонио Джарамилло, Хоакин Косио, Яна Бенкер, Кандра Дочерти, Патрик Фоурми, Гари Стретч, Диего Катаньо, Ши Уигхэм, Каришма Ахлувалиа, Джонатан Карр, Джэйк МакЛафлин, Александр Рэйт, Энтони Кутоло, Курт Коллинз, Эмбер Диксон Бреннер, Леонард Робертс, Джоэль Мур, Али Вонг, Сала Бэйкер, Сандра Эчеверриа, Тара Стоун, Мэттью Сальдивар, Шон Стоун, Вильфредо Лопез, Марко Моралес, Люсинда Серрано, Чарльз Хогк, Сэм Медина, Бен Брэй, Гонсало Менендес, Майя Меркер, Доннабелль Мортель, Тревор Донован, Лина Дэйли

Сюжет фильма:

«Молодые, красивые, дерзкие»

Молодые миллионеры Бен и Чон ведут дела на побережье Калифорнии. Бен — выдающийся ботаник и талантливый бизнесмен, Чон — мастер возвращения долгов и борьбы с конкурентами. В их работе много сложных моментов, ведь они выращивают лучшую в мире траву. Особо серьезные проблемы решает знакомый агент ФБР. Но с одной не сможет помочь даже он. Сверхприбыльным бизнесом заинтересовался мексиканский картель. Его возглавляет прекрасная Елена, и она нашла главную слабость друзей — и Бен, и Чон принадлежат одной девушке. Ради прелестной О. они готовы на все. Любовь делает нас особо опасными.

Выпущено:  США, Ixtlan Corporation, Onda Entertainment, Relativity Media
Продолжительность:   02:21:10
Перевод: Дублированный
Субтитры: нет

Файл
Качество: BDRip 720p (исходник Blu-ray Disc)
Видео: 1280x534, 4 049  Кбит/сек, 23.976 кадр/сек, AVC, x264, 2.40:1, 0.247 Бит/(Пиксели*Кадры), 2-pass
Аудио: AC-3, 384 Кбит/сек, 6 канала(ов), 48,0 КГц
Чаптеры: нет
Размер: 4.37 Гб

Автор Рипа:


[+] MediaInfo

Format                                   : Matroska
Format version                           : Version 4 / Version 2
File size                                : 4.37 GiB
Duration                                 : 2h 21mn
Overall bit rate                         : 4 433 Kbps
Movie name                               : Особо опасны (Расширенная версия).(2012).BDRip.720p.NOLIMITS-TEAM
Encoded date                             : UTC 2013-01-26 07:36:41
Writing application                      : mkvmerge v6.0.0 ('Coming Up For Air') built on Jan 20 2013 09:52:00
Writing library                          : libebml v1.3.0 + libmatroska v1.4.0

Video
ID                                       : 1
Format                                   : AVC
Format/Info                              : Advanced Video Codec
Format profile                           : High@L4.1
Format settings, CABAC                   : Yes
Format settings, ReFrames                : 12 frames
Codec ID                                 : V_MPEG4/ISO/AVC
Duration                                 : 2h 21mn
Bit rate                                 : 4 049 Kbps
Width                                    : 1 280 pixels
Height                                   : 534 pixels
Display aspect ratio                     : 2.40:1
Frame rate mode                          : Constant
Frame rate                               : 23.976 fps
Color space                              : YUV
Chroma subsampling                       : 4:2:0
Bit depth                                : 8 bits
Scan type                                : Progressive
Bits/(Pixel*Frame)                       : 0.247
Stream size                              : 3.91 GiB (89%)
Title                                    : Особо опасны (Расширенная версия) (2012) BDRip 720p от NOLIMITS-TEAM
Writing library                          : x264 core 129 r2245 bc13772
Encoding settings                        : cabac=1 / ref=12 / deblock=1:0:0 / analyse=0x3:0x113 / me=umh / subme=10 / psy=1 / psy_rd=1.00:0.10 / mixed_ref=1 / me_range=32 / chroma_me=1 / trellis=2 / 8x8dct=1 / cqm=0 / deadzone=21,11 / fast_pskip=0 / chroma_qp_offset=-3 / threads=6 / lookahead_threads=1 / sliced_threads=0 / nr=0 / decimate=0 / interlaced=0 / bluray_compat=0 / constrained_intra=0 / bframes=5 / b_pyramid=2 / b_adapt=2 / b_bias=0 / direct=3 / weightb=1 / open_gop=0 / weightp=2 / keyint=240 / keyint_min=24 / scenecut=40 / intra_refresh=0 / rc_lookahead=60 / rc=2pass / mbtree=1 / bitrate=4049 / ratetol=1.0 / qcomp=0.60 / qpmin=0 / qpmax=51 / qpstep=4 / cplxblur=20.0 / qblur=0.5 / ip_ratio=1.40 / aq=1:1.00
Language                                 : English
Default                                  : Yes
Forced                                   : No

Audio
ID                                       : 2
Format                                   : AC-3
Format/Info                              : Audio Coding 3
Mode extension                           : CM (complete main)
Format settings, Endianness              : Big
Codec ID                                 : A_AC3
Duration                                 : 2h 21mn
Bit rate mode                            : Constant
Bit rate                                 : 384 Kbps
Channel(s)                               : 6 channels
Channel positions                        : Front: L C R, Side: L R, LFE
Sampling rate                            : 48.0 KHz
Bit depth                                : 16 bits
Compression mode                         : Lossy
Stream size                              : 388 MiB (9%)
Title                                    : Дублированный
Language                                 : Russian
Default                                  : Yes
Forced                                   : No




Скриншоты:
[+] Всего файлов в раздаче - 1:
Особо опасны (Расширенная версия).(2012).BDRip.720p.NOLIMITS-TEAM.mkv4.37 GB

Показать еще раздачи по запросу особо:
2015-07-25 U Особо опасна / Barely Lethal (2015) HDRip-AVC от ExKinoRay | iTunes 1.90 GB ↑ 141 ↓ 5
2015-07-23 U Особо опасна / Barely Lethal (2015) HDRip | iTunes 2К1.47 GB ↑ 651 ↓ 104
2015-05-24 U Особо опасна / Barely Lethal (2015) WEB-DLRip от Scarabey | iTunes 744.90 MB ↑ 319 ↓ 45
2015-05-22 U Особо опасна / Barely Lethal (2015) WEB-DLRip | iTunes 1.46 GB ↑ 1987 ↓ 896
2015-05-22 U Особо опасна / Barely Lethal (2015) WEB-DL 720p | iTunes 2.99 GB ↑ 627 ↓ 514
2014-10-09 U Особо тяжкое преступление / Felony (2013) WEB-DLRip | L1 1.48 GB ↑ 302 ↓ 91
2014-03-19 U Особо тяжкие преступления / High Crimes (2002) BDRip 1080p 7.76 GB ↑ 113 ↓ 108

Отзывы
Зарегистрируйтесь чтобы добавить комментарий.
Обратная связь
Copyleft ©