↑↓Torrent.by
Поиск
Логин: Регистрация
Пароль: Восстановить пароль
Загрузка...

Позвоните Мышкину (2018) WEB-DLRip от Portablius

Скачать pozvonite-myshkinu-2018-web-dlrip-ot-portablius.torrent
U Магнитная ссылка Размер: 751.34 MB Раздают: 74 Качают: 11 Добавлен: 2019-05-28 05:42:03
Позвоните Мышкину (2018) WEB-DLRip от Portablius

Название: Позвоните Мышкину
Год выхода: 2018
Жанр: Комедия
Режиссер: Илья Казанков
В ролях: Михаил Трухин, Ярослава Базаева, Ирина Пегова, Михаил Пореченков, Иван Ефремов, Василий Юркевич, Маша Уросова, Полина Руденко

О фильме: Ермак Мышкин — крайне неуверенный в себе человек, который всю жизнь хотел стать актёром. Помочь в исполнении его мечты берётся 8-летняя девочка Даша, которая преследует и свои цели: ей очень хочется выйти из тени своей звёздной мамы, ведь та не обращает на дочь никакого внимания. Даша предлагает Ермаку отправиться из Петербурга в Москву на кастинг нового мюзикла, при этом «путешествие» должно выглядеть так, будто Ермак похитил девочку…

Страна: Россия
Продолжительность: 01:24:38
Перевод: Не требуется (оригинал)
Субтитры: нет

Файл
Кодек: XviD
Качество: WEB-DLRip
Видео: 688x368 (1.87:1), 24.000 fps, XviD build 73 ~1103 kbps avg, 0.18 bit/pixel
Звук: 48 kHz, MPEG Layer 3, 2 ch, ~128.00 kbps avg


[+] MediaInfo
General
Complete name               : Pozvonite.Myshkinu.2018.WEB-DLRip.Portablius.avi
Format                      : AVI
Format/Info                 : Audio Video Interleave
File size                   : 751 MiB
Duration                    : 1 h 24 min
Overall bit rate            : 1 241 kb/s
Writing application         : VirtualDubMod 1.5.10.3 | www.virtualdub-fr.org || (build 2550/release)
Writing library             : VirtualDubMod build 2550/release

Video
ID                          : 0
Format                      : MPEG-4 Visual
Format profile              : Advanced Simple@L5
Format settings             : BVOP1 / Custom Matrix
Format settings, BVOP       : 1
Format settings, QPel       : No
Format settings, GMC        : No warppoints
Format settings, Matrix     : Custom
Codec ID                    : XVID
Codec ID/Hint               : XviD
Duration                    : 1 h 24 min
Bit rate                    : 1 104 kb/s
Width                       : 688 pixels
Height                      : 368 pixels
Display aspect ratio        : 1.85:1
Frame rate                  : 24.000 FPS
Color space                 : YUV
Chroma subsampling          : 4:2:0
Bit depth                   : 8 bits
Scan type                   : Progressive
Compression mode            : Lossy
Bits/(Pixel*Frame)          : 0.182
Stream size                 : 668 MiB (89%)
Writing library             : XviD 73

Audio
ID                          : 1
Format                      : MPEG Audio
Format version              : Version 1
Format profile              : Layer 3
Codec ID                    : 55
Codec ID/Hint               : MP3
Duration                    : 1 h 24 min
Bit rate mode               : Constant
Bit rate                    : 128 kb/s
Channel(s)                  : 2 channels
Sampling rate               : 48.0 kHz
Frame rate                  : 41.667 FPS (1152 SPF)
Compression mode            : Lossy
Stream size                 : 77.5 MiB (10%)
Alignment                   : Aligned on interleaves
Interleave, duration        : 42  ms (1.00 video frame)
Interleave, preload duratio : 504  ms
Writing library             : LAME3.99r
Encoding settings           : -m s -V 4 -q 2 -lowpass 17 -b 128




Скриншоты:
[+] Всего файлов в раздаче - 1:
Pozvonite.Myshkinu.2018.WEB-DLRip.Portablius.avi751.34 MB

Похожие раздачи по запросу - позвоните:
2019-05-27 U Позвоните Мышкину (2018) WEB-DL 1080p 3.28 GB ↑ 79 ↓ 34
2019-05-27 U Позвоните Мышкину (2018) WEB-DLRip 1.46 GB ↑ 69 ↓ 39
2019-05-27 U Позвоните Мышкину (2018) WEB-DLRip-AVC от GeneralFilm | iTunes 1.17 GB ↑ 70 ↓ 30

Отзывы
Зарегистрируйтесь чтобы добавить комментарий.
Обратная связь
Copyleft ©