↑↓Torrent.by
Поиск
Логин: Регистрация
Пароль: Восстановить пароль
Загрузка...

Прячься! (2010) HDTVRip 720p

Скачать pryachsya-2010-hdtvrip-720p.torrent
U Магнитная ссылка Размер: 2.77 GB Раздают: 33 Качают: 20 Добавлен: 2019-05-28 05:42:26
Прячься! (2010) HDTVRip 720p

Название: Прячься!
Год выхода: 2010
Жанр:  триллер
Режиссер: Джонни О’Рейли
В ролях: Сергей Гармаш, Алексей Гуськов, Петр Логачев, Антон Шагин, Марина Александрова, Егор Пазенко, Сергей Юшкевич, Владимир Гусев

О фильме:
На затерянной высоко в горах метеостанции несут службу несколько человек. Однажды они перестают выходить на связь, руководство высылает на станцию спасателей, которые находят распахнутые настежь двери, еще теплые угли в котельной, неработающую радиостанцию — и никого...

Страна: Россия, Германия
Продолжительность: 01:20:03
Перевод: Не требуется
Субтитры: Нет

Файл                                      
Формат: Matroska
Качество: HDTVRip 720p
Видео: 1280x544 at 25.00 fps, x264, ~4753 kbps
Аудио: AC3, 2 ch, ~192 kbps

***Релиз от: -=DoMiNo=-


[+] M/I
General
Unique ID                   : 135952068299067855132031870746330872385 (0x66476A7AA42200F00F82D8F054B73A41)
Complete name               : Прячься!.(2010).HDTVRip 720p.[-=DoMiNo=-].mkv
Format                      : Matroska
Format version              : Version 4
File size                   : 2.77 GiB
Duration                    : 1 h 20 min
Overall bit rate            : 4 947 kb/s
Movie name                  : Прячься! (2010)
Encoded date                : UTC 2019-05-27 21:14:40
Writing application         : mkvmerge v34.0.0 ('Sight and Seen') 64-bit
Writing library             : libebml v1.3.7 + libmatroska v1.5.0
Attachments                 : poster

Video
ID                          : 1
Format                      : AVC
Format/Info                 : Advanced Video Codec
Format profile              : High@L4.1
Format settings             : CABAC / 9 Ref Frames
Format settings, CABAC      : Yes
Format settings, Reference  : 9 frames
Codec ID                    : V_MPEG4/ISO/AVC
Duration                    : 1 h 20 min
Bit rate                    : 4 753 kb/s
Width                       : 1 280 pixels
Height                      : 544 pixels
Display aspect ratio        : 2.35:1
Frame rate mode             : Constant
Frame rate                  : 25.000 FPS
Color space                 : YUV
Chroma subsampling          : 4:2:0
Bit depth                   : 8 bits
Scan type                   : Progressive
Bits/(Pixel*Frame)          : 0.273
Stream size                 : 2.66 GiB (96%)
Title                       : RIP_BY_-=DoMiNo=-
Writing library             : x264 core 157 r2969 d4099dd
Encoding settings           : cabac=1 / ref=9 / deblock=1:-3:-3 / analyse=0x3:0x133 / me=umh / subme=10 / psy=1 / psy_rd=1.00:0.00 / mixed_ref=1 / me_range=32 / chroma_me=1 / trellis=2 / 8x8dct=1 / cqm=0 / deadzone=21,11 / fast_pskip=1 / chroma_qp_offset=-2 / threads=6 / lookahead_threads=1 / sliced_threads=0 / nr=0 / decimate=1 / interlaced=0 / bluray_compat=0 / constrained_intra=0 / bframes=8 / b_pyramid=2 / b_adapt=2 / b_bias=0 / direct=1 / weightb=1 / open_gop=0 / weightp=2 / keyint=250 / keyint_min=25 / scenecut=40 / intra_refresh=0 / rc=crf / mbtree=0 / crf=19.0 / qcomp=0.60 / qpmin=15 / qpmax=69 / qpstep=4 / ip_ratio=1.40 / pb_ratio=1.30 / aq=1:1.00
Language                    : Russian
Default                     : Yes
Forced                      : No

Audio
ID                          : 2
Format                      : AC-3
Format/Info                 : Audio Coding 3
Commercial name             : Dolby Digital
Codec ID                    : A_AC3
Duration                    : 1 h 20 min
Bit rate mode               : Constant
Bit rate                    : 192 kb/s
Channel(s)                  : 2 channels
Channel layout              : L R
Sampling rate               : 48.0 kHz
Frame rate                  : 31.250 FPS (1536 SPF)
Bit depth                   : 16 bits
Compression mode            : Lossy
Stream size                 : 110 MiB (4%)
Language                    : Russian
Service kind                : Complete Main
Default                     : Yes
Forced                      : No

Menu
00:00:00.000                : en:Глава 01
00:05:00.000                : en:Глава 02
00:10:00.000                : en:Глава 03
00:15:00.000                : en:Глава 04
00:20:00.000                : en:Глава 05
00:25:00.000                : en:Глава 06
00:30:00.000                : en:Глава 07
00:35:00.000                : en:Глава 08
00:40:00.000                : en:Глава 09
00:45:00.000                : en:Глава 10
00:50:00.000                : en:Глава 11
00:55:00.000                : en:Глава 12
01:00:00.000                : en:Глава 13
01:05:00.000                : en:Глава 14
01:10:00.000                : en:Глава 15
01:15:00.000                : en:Глава 16
01:20:00.000                : en:Глава 17



Скриншоты:
[+] Всего файлов в раздаче - 1:
Прячься!.(2010).HDTVRip 720p.[-=DoMiNo=-].mkv2.77 GB

Похожие раздачи по запросу - прячься:
2019-05-28 U Прячься! (2010) HDTVRip 1.37 GB ↑ 73 ↓ 28
2019-05-27 U Прячься! (2010) DVDRip 746.02 MB ↑ 90 ↓ 21
2018-09-30 U Прячься на свету / Hide in the Light (2018) HDRip-AVC | L2 1.06 GB ↑ 69 ↓ 13

Отзывы
Зарегистрируйтесь чтобы добавить комментарий.
Обратная связь
Copyleft ©