↑↓Torrent.by
Поиск
Логин: Регистрация
Пароль: Восстановить пароль
Загрузка...

Потерянный остров (2019) WEB-DLRip

Скачать poteryannyy-ostrov-2019-web-dlrip.torrent
U Магнитная ссылка Размер: 743.55 MB Раздают: 156 Качают: 38 Добавлен: 2019-05-28 19:14:31
Потерянный остров (2019) WEB-DLRip

Название: Потерянный остров
Год выхода: 2019
Жанр: драма, триллер, детектив
Режиссер: Денис Силяков
В ролях: Даниил Масленников, Наталья Фрей, Татьяна Догилева, Дмитрий Астрахан, Георгий Назаренко, Илья Ермолов, Юрий Долгинцов, Марина Черкунова, Александр Зарчиков

О фильме: Столичный журналист Игорь Воеводин прибывает на отдаленный дальневосточный остров, чтобы сделать репортаж о рыбацком поселении, в котором нашли своё последнее пристанище 12 человек, окружённых дикой природой в бескрайнем океане. Вскоре выясняется, что журналиста все только и ждут. Оторванный от большой земли, он оказывается во власти местных жителей и притягательной хозяйки острова.

Страна: Россия
Студия: Silyakoffilm"
Продолжительность: 01:26:32
Перевод: Не требуется

Файл
Кодек: XviD
Качество: WEB-DLRip
Видео: 688x392 (1.76:1), 25 fps, XviD build 50 ~1063 kbps avg, 0.16 bit/pixel
Звук: 48 kHz, MPEG Layer 3, 2 ch, ~128.00 kbps avg
Субтитры: Отсутствуют


[+] MediaInfo:
Общее
Полное имя : C:Потерянный остров_2019_WEB-DLRip.740.mb.avi
Формат : AVI
Формат/Информация : Audio Video Interleave
Размер файла : 744 Мбайт
Продолжительность : 1 ч. 26 м.
Общий поток : 1201 Кбит/сек
Программа кодирования : VirtualDubMod 1.5.10.3 | (build 2550/release)
Библиотека кодирования : VirtualDubMod build 2550/release

Видео
Идентификатор : 0
Формат : MPEG-4 Visual
Профиль формата : Advanced Simple@L5
Параметр BVOP формата : 1
Параметр QPel формата : Нет
Параметр GMC формата : Без точки перехода
Параметр матрицы формата : Default (H.263)
Идентификатор кодека : XVID
Идентификатор кодека/Подсказка : XviD
Продолжительность : 1 ч. 26 м.
Битрейт : 1063 Кбит/сек
Ширина : 688 пикселей
Высота : 392 пикселя
Соотношение сторон : 16:9
Частота кадров : 25,000 кадров/сек
Цветовое пространство : YUV
Субдискретизация насыщенности : 4:2:0
Битовая глубина : 8 бит
Тип развёртки : Прогрессивная
Метод сжатия : С потерями
Бит/(Пиксели*Кадры) : 0.158
Размер потока : 658 Мбайт (89%)
Библиотека кодирования : XviD 1.2.1 (UTC 2008-12-04)

Аудио
Идентификатор : 1
Формат : MPEG Audio
Версия формата : Version 1
Профиль формата : Layer 3
Идентификатор кодека : 55
Идентификатор кодека/Подсказка : MP3
Продолжительность : 1 ч. 26 м.
Вид битрейта : Постоянный
Битрейт : 128 Кбит/сек
Каналы : 2 канала
Частота : 48,0 КГц
Метод сжатия : С потерями
Размер потока : 79,2 Мбайт (11%)
Выравнивание : Соединение по промежуткам
Продолжительность промежутка : 40 мс. (1,00 видеокадр)
Время предзагрузки промежутка : 504 мс.
Библиотека кодирования : LAME3.99r
Настройки программы : -m s -V 4 -q 2 -lowpass 17 -b 128




Скриншоты:
[+] Всего файлов в раздаче - 1:
Потерянный остров_2019_WEB-DLRip.740.mb.avi743.55 MB

Похожие раздачи по запросу - потерянный:
2019-05-26 U Потерянный остров (2019) WEB-DLRip 1.46 GB ↑ 434 ↓ 191
2016-05-02 U Джейн и потерянный город / Jane and the Lost City (1987) DVDRip | P2 1.46 GB ↑ 132 ↓ 33

Отзывы
Vov801 Оценка: 5
Бред за деньги мецената

Зарегистрируйтесь чтобы добавить комментарий.
Обратная связь
Copyleft ©