↑↓Torrent.by
Поиск
Логин: Регистрация
Пароль: Восстановить пароль
Загрузка...

Прячься! (2010) HDTVRip

Скачать pryachsya-2010-hdtvrip.torrent
U Магнитная ссылка Размер: 1.37 GB Раздают: 73 Качают: 28 Добавлен: 2019-05-28 19:14:42
Прячься! (2010) HDTVRip

Название: Прячься!
Год выхода: 2010
Жанр:  триллер
Режиссер: Джонни О’Рейли
В ролях: Сергей Гармаш, Алексей Гуськов, Петр Логачев, Антон Шагин, Марина Александрова, Егор Пазенко, Сергей Юшкевич, Владимир Гусев

О фильме:
На затерянной высоко в горах метеостанции несут службу несколько человек. Однажды они перестают выходить на связь, руководство высылает на станцию спасателей, которые находят распахнутые настежь двери, еще теплые угли в котельной, неработающую радиостанцию — и никого...

Страна: Россия, Германия
Продолжительность: 01:20:03
Перевод: Не требуется
Субтитры: Нет

Файл                                      
Формат: AVI
Качество: HDTVRip
Видео: 720x304 at 25.00 fps, XviD 67, ~2250 kbps
Аудио: AC3, 2 ch, ~192 kbps

***Релиз от: -=DoMiNo=-


[+] M/I
General
Complete name               : Прячься!.(2010).HDTVRip.[-=DoMiNo=-].avi
Format                      : AVI
Format/Info                 : Audio Video Interleave
Format profile              : OpenDML
File size                   : 1.37 GiB
Duration                    : 1 h 20 min
Overall bit rate            : 2 454 kb/s

Video
ID                          : 0
Format                      : MPEG-4 Visual
Format profile              : Advanced Simple@L5
Format settings             : BVOP2 / Custom Matrix
Format settings, BVOP       : 2
Format settings, QPel       : No
Format settings, GMC        : No warppoints
Format settings, Matrix     : Custom
Codec ID                    : XVID
Codec ID/Hint               : XviD
Duration                    : 1 h 20 min
Bit rate                    : 2 250 kb/s
Width                       : 720 pixels
Height                      : 304 pixels
Display aspect ratio        : 2.35:1
Frame rate                  : 25.000 FPS
Color space                 : YUV
Chroma subsampling          : 4:2:0
Bit depth                   : 8 bits
Scan type                   : Progressive
Compression mode            : Lossy
Bits/(Pixel*Frame)          : 0.411
Stream size                 : 1.26 GiB (92%)
Writing library             : XviD 67

Audio
ID                          : 1
Format                      : AC-3
Format/Info                 : Audio Coding 3
Commercial name             : Dolby Digital
Codec ID                    : 2000
Duration                    : 1 h 20 min
Bit rate mode               : Constant
Bit rate                    : 192 kb/s
Channel(s)                  : 2 channels
Channel layout              : L R
Sampling rate               : 48.0 kHz
Frame rate                  : 31.250 FPS (1536 SPF)
Bit depth                   : 16 bits
Compression mode            : Lossy
Stream size                 : 110 MiB (8%)
Alignment                   : Aligned on interleaves
Interleave, duration        : 32  ms (0.80 video frame)
Service kind                : Complete Main



Скриншоты:
[+] Всего файлов в раздаче - 1:
Прячься!.(2010).HDTVRip.[-=DoMiNo=-].avi1.37 GB

Похожие раздачи по запросу - прячься:
2019-05-28 U Прячься! (2010) HDTVRip 720p 2.77 GB ↑ 33 ↓ 20
2019-05-27 U Прячься! (2010) DVDRip 746.02 MB ↑ 89 ↓ 21
2018-09-30 U Прячься на свету / Hide in the Light (2018) HDRip-AVC | L2 1.06 GB ↑ 69 ↓ 13

Отзывы
Зарегистрируйтесь чтобы добавить комментарий.
Обратная связь
Copyleft ©