↑↓Torrent.by
Поиск
Логин: Регистрация
Пароль: Восстановить пароль
Загрузка...

Отмщение / Avengement (2019) WEBRip 1080p | LakeFilms

Скачать otmschenie-avengement-2019-webrip-1080p-lakefilms.torrent
U Магнитная ссылка Размер: 1.56 GB Раздают: 176 Качают: 61 Добавлен: 2019-05-30 08:01:39
Отмщение / Avengement (2019) WEBRip 1080p | LakeFilms

Название: Отмщение
Оригинальное название: Avengement
Год выпуска: 2019
Жанр:  Боевик, криминал
Выпущено: Великобритания
Режиссер: Джесси Джонсон
В ролях: Скотт Эдкинс, Крэйг Фэйрбрасс, Томас Тургус, Ник Моран, Кирстон Вэрэйнг, Лео Грегори, Бо Фаулер, Луис Мэндилор, Теренс Мэйнард, Росс О'Хеннесси

О фильме: Преступнику дают в тюрьме отгул, во время которого он сбегает из-под наблюдения и начинает мстить людям, которые сделали его хладнокровным убийцей.

Техданные
Качество: WEBRip (1080p)
Видео: MPEG-4 AVC, ~ 2 300 kb/s, 1920x818, 23.976 FPS
Аудио: AC3, 2 ch, 256 Кбит/с
Продолжительность: 01:28:20
Перевод: Любительский двухголосый закадровый (LakeFilms)

Присутствует реклама!


[+] MI
General
Unique ID                                : 152844926215408445930945424853768172915 (0x72FCDCADA4C3E054EE0F162A40157573)
Complete name                            : E:Avengement.2019.1080p.LakeFilms.mkv
Format                                   : Matroska
Format version                           : Version 4 / Version 2
File size                                : 1.56 GiB
Duration                                 : 1 h 28 min
Overall bit rate                         : 2 532 kb/s
Writing application                      : XviD4PSP 7.0.484 DAILY
Writing library                          : Lavf57.71.100
ErrorDetectionType                       : Per level 1
ENCODING_INFO                            : MATROSKA,WEBM > MKV / H264 > X264 ABR 2300kbps Very Fast / AAC-LC > AC3 CBR 256kbps

Video
ID                                       : 1
Format                                   : AVC
Format/Info                              : Advanced Video Codec
Format profile                           : High@L4
Format settings                          : CABAC / 4 Ref Frames
Format settings, CABAC                   : Yes
Format settings, RefFrames               : 4 frames
Codec ID                                 : V_MPEG4/ISO/AVC
Duration                                 : 1 h 28 min
Bit rate                                 : 2 300 kb/s
Width                                    : 1 920 pixels
Height                                   : 818 pixels
Display aspect ratio                     : 2.35:1
Frame rate mode                          : Constant
Frame rate                               : 23.976 (24000/1001) FPS
Color space                              : YUV
Chroma subsampling                       : 4:2:0
Bit depth                                : 8 bits
Scan type                                : Progressive
Bits/(Pixel*Frame)                       : 0.061
Stream size                              : 1.37 GiB (88%)
Writing library                          : x264 core 157 r2969 d4099dd
Encoding settings                        : cabac=1 / ref=1 / deblock=1:-2:-2 / analyse=0x3:0x113 / me=hex / subme=2 / psy=1 / psy_rd=1.00:0.00 / mixed_ref=0 / me_range=16 / chroma_me=1 / trellis=0 / 8x8dct=1 / cqm=0 / deadzone=21,11 / fast_pskip=1 / chroma_qp_offset=0 / threads=5 / lookahead_threads=1 / sliced_threads=0 / nr=0 / decimate=1 / interlaced=0 / bluray_compat=0 / constrained_intra=0 / bframes=3 / b_pyramid=2 / b_adapt=1 / b_bias=0 / direct=1 / weightb=1 / open_gop=0 / weightp=1 / keyint=240 / keyint_min=24 / scenecut=40 / intra_refresh=0 / rc_lookahead=10 / rc=abr / mbtree=1 / bitrate=2300 / ratetol=1.0 / qcomp=0.60 / qpmin=0 / qpmax=69 / qpstep=4 / ip_ratio=1.40 / aq=1:1.00
Default                                  : Yes
Forced                                   : No

Audio
ID                                       : 2
Format                                   : AC-3
Format/Info                              : Audio Coding 3
Codec ID                                 : A_AC3
Duration                                 : 1 h 28 min
Bit rate mode                            : Constant
Bit rate                                 : 256 kb/s
Channel(s)                               : 2 channels
Channel positions                        : Front: L R
Sampling rate                            : 48.0 kHz
Frame rate                               : 31.250 FPS (1536 SPF)
Bit depth                                : 16 bits
Compression mode                         : Lossy
Stream size                              : 162 MiB (10%)
Service kind                             : Complete Main
Default                                  : Yes
Forced                                   : No



Скриншоты:
[+] Всего файлов в раздаче - 1:
Avengement.2019.1080p.LakeFilms.mkv1.56 GB

Показать еще раздачи по запросу отмщение:
2019-06-26 U Отмщение / Avengement (2019) WEB-DLRip-AVC от k.e.n & MegaPeer | A, P 2.18 GB ↑ 159 ↓ 33
2019-06-03 U Отмщение / Avengement (2019) WEB-DLRip от Scarabey | HDRezka Studio 1.35 GB ↑ 139 ↓ 22
2019-06-02 U Отмщение / Avengement (2019) WEB-DLRip от Portablius | HDRezka Studio 744.62 MB ↑ 44 ↓ 12
2019-06-01 U Отмщение / Avengement (2019) WEB-DLRip-AVC от ExKinoRay | HDRezka Studio 745.62 MB ↑ 134 ↓ 33
2019-06-01 U Отмщение / Avengement (2019) WEB-DLRip-AVC | HDRezka Studio 1.69 GB ↑ 119 ↓ 39
2019-06-01 U Отмщение / Avengement (2019) WEB-DL 1080p | HDRezka Studio 5.42 GB ↑ 134 ↓ 71
2019-06-01 U Отмщение / Avengement (2019) WEB-DLRip от Dalemake | HDrezka Studio 1.46 GB ↑ 489 ↓ 121

Отзывы
Зарегистрируйтесь чтобы добавить комментарий.
Обратная связь
Copyleft ©