↑↓Torrent.by
Поиск
Логин: Регистрация
Пароль: Восстановить пароль
Загрузка...

Небеса Ланкастера / Lancaster Skies (2019) WEBRip 1080p | LakeFilms

Скачать nebesa-lankastera-lancaster-skies-2019-webrip-1080p-lakefilms.torrent
U Магнитная ссылка Размер: 1.66 GB Раздают: 82 Качают: 22 Добавлен: 2019-05-30 11:14:32
Небеса Ланкастера / Lancaster Skies (2019) WEBRip 1080p | LakeFilms

Название: Небеса Ланкастера
Оригинальное название: Lancaster Skies
Год выпуска: 2019
Жанр:  Боевик, драма, военный
Выпущено: Великобритания, Tin Hat Productions (II), Tin Hat Productions
Режиссер: Каллум Берн
В ролях: Крис Саддлер, Роза Кодури, Джошуа Коллинз, Вин Хоук, Джеффри Манделл, Джоэнн Гэйл, Том Гордон, Дэвид Добсон, Стив Хили, Эд Портер

О фильме: Дуглас, одинокий и сломленный ас спитфайра, должен преодолеть свое тяжелое прошлое, чтобы возглавить экипаж бомбардировщика "Ланкастер" в решающей воздушной схватке над Берлином в 1944 году.

Техданные
Качество: WEBRip (1080p)
Видео: MPEG-4 AVC, ~ 2 091 kb/s, 1920x808, 24.000 FPS
Аудио: AC3, 2 ch, 256 Кбит/с
Продолжительность: 01:38:57
Перевод: Любительский двухголосый закадровый (LakeFilms)
Присутствует реклама!


[+] MI
General
Unique ID                                : 208985862188382153349158131770770588681 (0x9D393686CA04930839E952BD57700409)
Complete name                            : E:Lancaster.Skies.2019.1080p.LakeFilms.mkv
Format                                   : Matroska
Format version                           : Version 4 / Version 2
File size                                : 1.66 GiB
Duration                                 : 1 h 38 min
Overall bit rate                         : 2 394 kb/s
Writing application                      : XviD4PSP 7.0.484 DAILY
Writing library                          : Lavf57.71.100
ErrorDetectionType                       : Per level 1
ENCODING_INFO                            : MATROSKA,WEBM > MKV / H264 > X264 ABR 2200kbps Very Fast / AAC-LC > AC3 CBR 256kbps

Video
ID                                       : 1
Format                                   : AVC
Format/Info                              : Advanced Video Codec
Format profile                           : High@L4
Format settings                          : CABAC / 4 Ref Frames
Format settings, CABAC                   : Yes
Format settings, RefFrames               : 4 frames
Codec ID                                 : V_MPEG4/ISO/AVC
Duration                                 : 1 h 38 min
Bit rate                                 : 2 091 kb/s
Nominal bit rate                         : 2 200 kb/s
Width                                    : 1 920 pixels
Height                                   : 808 pixels
Display aspect ratio                     : 2.40:1
Frame rate mode                          : Constant
Frame rate                               : 24.000 FPS
Color space                              : YUV
Chroma subsampling                       : 4:2:0
Bit depth                                : 8 bits
Scan type                                : Progressive
Bits/(Pixel*Frame)                       : 0.056
Stream size                              : 1.45 GiB (87%)
Writing library                          : x264 core 157 r2969 d4099dd
Encoding settings                        : cabac=1 / ref=1 / deblock=1:-2:-2 / analyse=0x3:0x113 / me=hex / subme=2 / psy=1 / psy_rd=1.00:0.00 / mixed_ref=0 / me_range=16 / chroma_me=1 / trellis=0 / 8x8dct=1 / cqm=0 / deadzone=21,11 / fast_pskip=1 / chroma_qp_offset=0 / threads=5 / lookahead_threads=1 / sliced_threads=0 / nr=0 / decimate=1 / interlaced=0 / bluray_compat=0 / constrained_intra=0 / bframes=3 / b_pyramid=2 / b_adapt=1 / b_bias=0 / direct=1 / weightb=1 / open_gop=0 / weightp=1 / keyint=240 / keyint_min=24 / scenecut=40 / intra_refresh=0 / rc_lookahead=10 / rc=abr / mbtree=1 / bitrate=2200 / ratetol=1.0 / qcomp=0.60 / qpmin=0 / qpmax=69 / qpstep=4 / ip_ratio=1.40 / aq=1:1.00
Default                                  : Yes
Forced                                   : No

Audio
ID                                       : 2
Format                                   : AC-3
Format/Info                              : Audio Coding 3
Codec ID                                 : A_AC3
Duration                                 : 1 h 38 min
Bit rate mode                            : Constant
Bit rate                                 : 256 kb/s
Channel(s)                               : 2 channels
Channel positions                        : Front: L R
Sampling rate                            : 48.0 kHz
Frame rate                               : 31.250 FPS (1536 SPF)
Bit depth                                : 16 bits
Compression mode                         : Lossy
Stream size                              : 181 MiB (11%)
Service kind                             : Complete Main
Default                                  : Yes
Forced                                   : No



Скриншоты:
[+] Всего файлов в раздаче - 1:
Lancaster.Skies.2019.1080p.LakeFilms.mkv1.66 GB

Похожие раздачи по запросу - небеса:
2018-03-14 U Кардинал Ришелье. Небеса могут подождать... / Le cardinal de Richelieu : le ciel peut attendre... (2010) SATRip от Pshichko66 1.47 GB ↑ 403 ↓ 38

Отзывы
Зарегистрируйтесь чтобы добавить комментарий.
Обратная связь
Copyleft ©