↑↓Torrent.by
Поиск
Логин: Регистрация
Пароль: Восстановить пароль
Загрузка...

Рассвет (2019) WEB-DL 1080p | iTunes

Скачать rassvet-2019-web-dl-1080p-itunes.torrent
U Магнитная ссылка Размер: 3.40 GB Раздают: 408 Качают: 111 Добавлен: 2019-05-31 07:43:52
Рассвет (2019) WEB-DL 1080p | iTunes

Название: Рассвет
Год выхода: 2019
Жанр: Ужасы, триллер
Режиссер: Павел Сидоров
В ролях: Оксана Акиньшина, Александра Дроздова, Александр Молочников, Анна Слю, Олег Васильков, Кузьма Котрелев, Анастасия Куимова, Валерий Кухарешин, Мирослав Пенцов

О фильме:
У главной героини при загадочных обстоятельствах погибает брат. Девушку начинают преследовать реалистичные кошмары, и она отправляется в институт сомнологии, где ее вместе с другими пациентами погружают в совместное осознанное сновидение. Но после наступления рассвета они проснутся совсем в другой реальности, которая страшнее любого кошмара.

 
Страна: Россия
Студия: Karoprokat
Продолжительность: 01:37:41
Перевод: Не требуется (Русский)

Файл
Качество: WEB-DL 1080p | iTunes
Видео: AVC/H.264, 1908x792, ~4597 Кbps, 23,976 fps
Звук: AC3, 6 ch, 384 kbps - Русский
Субтитры: отсутствуют


[+] Mediainfo
Общее
Уникальный идентификатор                 : 204462926386671502192460750326530299024 (0x99D2209318AF89E1EBFED3897EBBD490)
Полное имя                               : D:FilmРассвет.2019.WEB-DL.1080p.mkv
Формат                                   : Matroska
Версия формата                           : Version 4
Размер файла                             : 3,40 Гбайт
Продолжительность                        : 1 ч. 37 м.
Общий поток                              : 4983 Кбит/сек
Дата кодирования                         : UTC 2019-05-29 20:58:57
Программа кодирования                    : mkvmerge v23.0.0 ('The Bride Said No') 64-bit
Библиотека кодирования                   : libebml v1.3.6 + libmatroska v1.4.9

Видео
Идентификатор                            : 1
Формат                                   : AVC
Формат/Информация                        : Advanced Video Codec
Профиль формата                          : High@L4
Настройки формата                        : CABAC / 5 Ref Frames
Параметр CABAC формата                   : Да
Параметр RefFrames формата               : 5 кадров
Идентификатор кодека                     : V_MPEG4/ISO/AVC
Продолжительность                        : 1 ч. 37 м.
Битрейт                                  : 4597 Кбит/сек
Ширина                                   : 1908 пикселей
Высота                                   : 792 пикселя
Соотношение сторон                       : 2,40:1
Режим частоты кадров                     : Постоянный
Частота кадров                           : 23,976 (24000/1001) кадра/сек
Цветовое пространство                    : YUV
Субдискретизация насыщенности            : 4:2:0
Битовая глубина                          : 8 бит
Тип развёртки                            : Прогрессивная
Бит/(Пиксели*Кадры)                      : 0.127
Размер потока                            : 3,14 Гбайт (92%)
Язык                                     : Russian
Default                                  : Да
Forced                                   : Нет
Цветовой диапазон                        : Limited
Основные цвета                           : BT.709
Характеристики трансфера                 : BT.709
Коэффициенты матрицы                     : BT.709

Аудио
Идентификатор                            : 2
Формат                                   : AC-3
Формат/Информация                        : Audio Coding 3
Коммерческое название                    : Dolby Digital
Идентификатор кодека                     : A_AC3
Продолжительность                        : 1 ч. 37 м.
Вид битрейта                             : Постоянный
Битрейт                                  : 384 Кбит/сек
Каналы                                   : 6 каналов
ChannelLayout                            : L R C LFE Ls Rs
Частота                                  : 48,0 КГц
Частота кадров                           : 31,250 кадров/сек (1536 SPF)
Битовая глубина                          : 16 бит
Метод сжатия                             : С потерями
Размер потока                            : 268 Мбайт (8%)
Язык                                     : Russian
ServiceKind                              : Complete Main
Default                                  : Да
Forced                                   : Нет

Меню
00:00:00.000                             : en:1
00:03:53.000                             : en:2
00:13:33.000                             : en:3
00:23:19.000                             : en:4
00:32:03.000                             : en:5
00:42:42.000                             : en:6
00:52:23.000                             : en:7
01:02:26.000                             : en:8
01:12:23.000                             : en:9
01:22:04.000                             : en:10
01:33:36.000                             : en:11  



Скриншоты:
[+] Всего файлов в раздаче - 1:
Рассвет.2019.WEB-DL.1080p.mkv3.40 GB

Показать еще раздачи по запросу рассвет:
2019-06-02 U Рассвет (2019) WEB-DLRip-AVC от ExKinoRay | iTunes 741.41 MB ↑ 43 ↓ 8
2019-06-01 U Рассвет (2019) WEB-DLRip от GeneralFilm | iTunes 1.45 GB ↑ 81 ↓ 24
2019-05-31 U Рассвет (2019) WEB-DLRip-AVC от Files-x | iTunes 1.37 GB ↑ 95 ↓ 55
2019-05-31 U Рассвет (2019) WEB-DLRip от GeneralFilm | iTunes 745.77 MB ↑ 101 ↓ 37
2019-04-01 U Я подарю тебе рассвет [01-04 из 04] (2018) HDTVRip 720p от ExKinoRay 6.40 GB ↑ 61 ↓ 28
2018-09-09 U Я подарю тебе рассвет [01-04 из 04] (2018) SATRip от Files-x 2.72 GB ↑ 61 ↓ 108
2017-11-04 U Рассвет надежды 2: Дочь Грома / Dawn of Hope 2: Daughter of Thunder CE (2017) PC 1К697.91 MB ↑ 103 ↓ 11

Отзывы
Зарегистрируйтесь чтобы добавить комментарий.
Обратная связь
Copyleft ©