↑↓Torrent.by
Поиск
Логин: Регистрация
Пароль: Восстановить пароль
Загрузка...

Купи меня (2018) WEB-DL 1080p | iTunes

Скачать kupi-menya-2018-web-dl-1080p-itunes.torrent
U Магнитная ссылка Размер: 3.72 GB Раздают: 181 Качают: 83 Добавлен: 2019-05-31 07:44:24
Купи меня (2018) WEB-DL 1080p | iTunes

Название: Купи меня
Год выхода: 2018
Жанр: Драма
Режиссер: Вадим Перельман
В ролях: Анна Адамович, Юлия Хлынина, Светлана Устинова, Александр Цёма, Евгения Крюкова, Иван Добронравов, Анатолий Кот, Микаэль Джанибекян, Сабина Ахмедова, Александр Обласов

О фильме:
Три девушки — три истории о том, как изменить свою жизнь и чем предстоит пожертвовать, чтобы стать «счастливыми». Порше, олигархи, секс, любовь и мечты о красивой жизни. Смогут ли героини добиться успеха, или они сломаются, так и не дойдя до цели?

 
Страна: Россия
Студия: Art Pictures Studio, Централ Партнершип, MEM Media, Look Film, R-media
Продолжительность: 01:47:12
Перевод: Не требуется (русский)

Файл
Качество: WEB-DL 1080p | iTunes
Видео: AVC/H.264, 1920x804, ~4584 Кbps, 24 fps
Звук: AC3, 6 ch, 384 kbps - Русский
Субтитры: отсутствуют


[+] Mediainfo
Общее
Уникальный идентификатор                 : 105088988699446974903620487961177554786 (0x4F0F672C113AC07869ECEE66CDE0FF62)
Полное имя                               : Купи меня.2018.WEB-DL.1080p.mkv
Формат                                   : Matroska
Версия формата                           : Version 4
Размер файла                             : 3,72 Гбайт
Продолжительность                        : 1 ч. 47 м.
Общий поток                              : 4970 Кбит/сек
Дата кодирования                         : UTC 2019-05-29 22:13:36
Программа кодирования                    : mkvmerge v23.0.0 ('The Bride Said No') 64-bit
Библиотека кодирования                   : libebml v1.3.6 + libmatroska v1.4.9

Видео
Идентификатор                            : 1
Формат                                   : AVC
Формат/Информация                        : Advanced Video Codec
Профиль формата                          : High@L4
Настройки формата                        : CABAC / 5 Ref Frames
Параметр CABAC формата                   : Да
Параметр RefFrames формата               : 5 кадров
Идентификатор кодека                     : V_MPEG4/ISO/AVC
Продолжительность                        : 1 ч. 47 м.
Битрейт                                  : 4584 Кбит/сек
Ширина                                   : 1920 пикселей
Высота                                   : 804 пикселя
Соотношение сторон                       : 2,40:1
Режим частоты кадров                     : Постоянный
Частота кадров                           : 24,000 кадра/сек
Цветовое пространство                    : YUV
Субдискретизация насыщенности            : 4:2:0
Битовая глубина                          : 8 бит
Тип развёртки                            : Прогрессивная
Бит/(Пиксели*Кадры)                      : 0.124
Размер потока                            : 3,43 Гбайт (92%)
Язык                                     : Russian
Default                                  : Да
Forced                                   : Нет
Цветовой диапазон                        : Limited
Основные цвета                           : BT.709
Характеристики трансфера                 : BT.709
Коэффициенты матрицы                     : BT.709

Аудио
Идентификатор                            : 2
Формат                                   : AC-3
Формат/Информация                        : Audio Coding 3
Коммерческое название                    : Dolby Digital
Идентификатор кодека                     : A_AC3
Продолжительность                        : 1 ч. 47 м.
Вид битрейта                             : Постоянный
Битрейт                                  : 384 Кбит/сек
Каналы                                   : 6 каналов
ChannelLayout                            : L R C LFE Ls Rs
Частота                                  : 48,0 КГц
Частота кадров                           : 31,250 кадров/сек (1536 SPF)
Битовая глубина                          : 16 бит
Метод сжатия                             : С потерями
Задержка видео                           : -42 мс.
Размер потока                            : 294 Мбайт (8%)
Язык                                     : Russian
ServiceKind                              : Complete Main
Default                                  : Да
Forced                                   : Нет

Меню
00:00:00.000                             : en:Chapter 1
00:07:17.000                             : en:Chapter 2
00:13:34.625                             : en:Chapter 3
00:18:58.625                             : en:Chapter 4
00:24:02.875                             : en:Chapter 5
00:29:13.958                             : en:Chapter 6
00:35:52.624                             : en:Chapter 7
00:42:36.999                             : en:Chapter 8
00:49:41.707                             : en:Chapter 9
00:56:26.123                             : en:Chapter 10
01:01:47.373                             : en:Chapter 11
01:10:19.289                             : en:Chapter 12
01:17:06.622                             : en:Chapter 13
01:22:10.622                             : en:Chapter 14
01:26:50.747                             : en:Chapter 15
01:32:52.872                             : en:Chapter 16
01:39:45.205                             : en:Chapter 17  



Скриншоты:
[+] Всего файлов в раздаче - 1:
Купи меня.2018.WEB-DL.1080p.mkv3.72 GB

Похожие раздачи по запросу - купи:
2018-07-16 U Купи меня (2018) WEB-DLRip-AVC от ExKinoRay | iTunes 1.52 GB ↑ 401 ↓ 72
2014-03-18 U Купи Авто (2009-2014) PDF | Подборка 3.78 GB ↑ 49 ↓ 100

Отзывы
Зарегистрируйтесь чтобы добавить комментарий.
Обратная связь
Copyleft ©