↑↓Torrent.by
Поиск
Логин: Регистрация
Пароль: Восстановить пароль
Загрузка...

Без меня (2018) WEB-DL 1080p | iTunes

Скачать bez-menya-2018-web-dl-1080p-itunes.torrent
U Магнитная ссылка Размер: 3.07 GB Раздают: 111 Качают: 27 Добавлен: 2019-05-31 07:44:58
Без меня (2018) WEB-DL 1080p | iTunes

Название: Без меня
Год выхода: 2018
Жанр: Драма, мелодрама
Режиссер: Кирилл Плетнёв
В ролях: Полина Максимова, Любовь Аксёнова, Риналь Мухаметов, Кирилл Плетнёв, Анна Каменкова, Евгения Дмитриева, Иван Титяев, Владимир Яглыч, Алексей Шевченков, Агриппина Стеклова

О фильме:
Две девушки, любившие одного мужчину, после его гибели получают сообщения, автором которых может быть только он. В надежде на чудо им вдвоем предстоит отправиться в путь, который прокладывают его подсказки, чтобы открыть тайну, стоящую за загадочными посланиями.


Страна: Россия
Студия: Марс Медиа «Синетрейн»
Продолжительность: 01:29:16
Перевод: Не требуется (русский)

Файл
Качество: WEB-DL 1080p | iTunes
Видео: AVC/H.264, 1920x806, ~4538 Кbps, 25 fps
Звук: AC3, 6 ch, 384 kbps - Русский
Субтитры: отсутствуют


[+] Mediainfo
Общее
Уникальный идентификатор                 : 170673519075326085336245350927085350101 (0x8066862C148D15B46D52FC21A29C2CD5)
Полное имя                               : D:FilmБез меня.2018.WEB-DL.1080p.mkv
Формат                                   : Matroska
Версия формата                           : Version 4
Размер файла                             : 3,07 Гбайт
Продолжительность                        : 1 ч. 29 м.
Общий поток                              : 4924 Кбит/сек
Дата кодирования                         : UTC 2019-05-29 22:10:43
Программа кодирования                    : mkvmerge v23.0.0 ('The Bride Said No') 64-bit
Библиотека кодирования                   : libebml v1.3.6 + libmatroska v1.4.9

Видео
Идентификатор                            : 1
Формат                                   : AVC
Формат/Информация                        : Advanced Video Codec
Профиль формата                          : High@L4
Настройки формата                        : CABAC / 5 Ref Frames
Параметр CABAC формата                   : Да
Параметр RefFrames формата               : 5 кадров
Идентификатор кодека                     : V_MPEG4/ISO/AVC
Продолжительность                        : 1 ч. 29 м.
Битрейт                                  : 4538 Кбит/сек
Ширина                                   : 1920 пикселей
Высота                                   : 806 пикселей
Соотношение сторон                       : 2,40:1
Режим частоты кадров                     : Постоянный
Частота кадров                           : 25,000 кадров/сек
Цветовое пространство                    : YUV
Субдискретизация насыщенности            : 4:2:0
Битовая глубина                          : 8 бит
Тип развёртки                            : Прогрессивная
Бит/(Пиксели*Кадры)                      : 0.117
Размер потока                            : 2,83 Гбайт (92%)
Язык                                     : Russian
Default                                  : Да
Forced                                   : Нет
Цветовой диапазон                        : Limited
Основные цвета                           : BT.709
Характеристики трансфера                 : BT.709
Коэффициенты матрицы                     : BT.709

Аудио
Идентификатор                            : 2
Формат                                   : AC-3
Формат/Информация                        : Audio Coding 3
Коммерческое название                    : Dolby Digital
Идентификатор кодека                     : A_AC3
Продолжительность                        : 1 ч. 29 м.
Вид битрейта                             : Постоянный
Битрейт                                  : 384 Кбит/сек
Каналы                                   : 6 каналов
ChannelLayout                            : L R C LFE Ls Rs
Частота                                  : 48,0 КГц
Частота кадров                           : 31,250 кадров/сек (1536 SPF)
Битовая глубина                          : 16 бит
Метод сжатия                             : С потерями
Задержка видео                           : -40 мс.
Размер потока                            : 245 Мбайт (8%)
Язык                                     : Russian
ServiceKind                              : Complete Main
Default                                  : Да
Forced                                   : Нет

Меню
00:00:00.000                             : en:Chapter 1
00:06:37.200                             : en:Chapter 2
00:13:37.680                             : en:Chapter 3
00:18:28.360                             : en:Chapter 4
00:26:45.800                             : en:Chapter 5
00:32:30.520                             : en:Chapter 6
00:38:25.200                             : en:Chapter 7
00:45:41.560                             : en:Chapter 8
00:53:00.120                             : en:Chapter 9
00:59:37.320                             : en:Chapter 10
01:04:29.480                             : en:Chapter 11
01:09:23.360                             : en:Chapter 12
01:15:38.840                             : en:Chapter 13  



Скриншоты:
[+] Всего файлов в раздаче - 1:
Без меня.2018.WEB-DL.1080p.mkv3.07 GB

Показать еще раздачи по запросу меня:
2019-06-02 U Без меня (2018) HDTVRip-AVC от Files-x | iTunes 1.37 GB ↑ 93 ↓ 9
2019-06-02 U Без меня (2018) WEB-DLRip от Scarabey | iTunes 1.44 GB ↑ 62 ↓ 20
2019-05-31 U Купи меня (2018) WEB-DL 1080p | iTunes 3.72 GB ↑ 190 ↓ 83
2019-05-04 U Мёртв для меня / Dead to Me [S01] (2019) WEB-DL 1080p | Пифагор 8.66 GB ↑ 75 ↓ 40
2019-04-08 U Без меня (2018) HDTVRip-AVC от ExKinoRay 742.73 MB ↑ 148 ↓ 45
2019-03-31 U Сможете ли вы меня простить? / Can You Ever Forgive Me? (2018) BDRip 1080p от селезень | iTunes 8.30 GB ↑ 171 ↓ 31
2019-03-31 U Сможете ли вы меня простить? / Can You Ever Forgive Me? (2018) BDRip от MegaPeer | iTunes 1.41 GB ↑ 58 ↓ 15

Отзывы
Зарегистрируйтесь чтобы добавить комментарий.
Обратная связь
Copyleft ©