↑↓Torrent.by
Поиск
Логин: Регистрация
Пароль: Восстановить пароль
Загрузка...

Капитан Марвел / Captain Marvel (2019) HDRip-AVC от OlLanDGroup | iTunes

Скачать kapitan-marvel-captain-2019-hdrip-avc-ot-ollandgroup-itunes.torrent
U Магнитная ссылка Размер: 2.27 GB Раздают: 160 Качают: 91 Добавлен: 2019-05-31 11:44:55
Капитан Марвел / Captain Marvel (2019) HDRip-AVC от OlLanDGroup | iTunes

Год выпуска: 2019
Страна: США
Производство: Walt Disney Pictures, Marvel Studios
Жанр:  Фантастика, боевик, приключения

Режиссёр: Анна Боден, Райан Флек
В ролях: Бри Ларсон, Сэмюэл Л. Джексон, Бен Мендельсон, Джуд Лоу, Аннетт Бенинг, Лашана Линч, Кларк Грегг, Рюн Темт, Джемма Чан, Альхенис Перес Сото, Джимон Хонсу, Ли Пейс, Чуку Моду, Мэттью Мехер, Акира Акбар, Марк Догерти, Стивен А. Чанг

Перевод: Дублированный | [iTunes]
Субтитры: Русские (форс., полные, SDH), Английские (полные, SDH)
Реклама: Отсутствует

Описание: После столкновения с враждующими инопланетными расами, пилот военно-воздушных сил Кэрол Дэнверс обретает суперсилу и становится неуязвимой. Героине предстоит совладать со своими новыми способностями, чтобы противостоять могущественному врагу.

Качество: HDRip-AVC | BDRip 1080p | Captain Marvel 2019 REPACK BluRay 1080p DTS-HD MA 7.1 x264-MTeam
Продолжительность: 02:03:42

Формат: MKV
Видео кодек: MPEG-4 AVC
Аудио кодек: AC3
Видео: 1024x428 (2.40:1), 23,976 fps, x264 ~1 789 kbps avg, 0.170 bit/pixel
Аудио #1: 48 kHz, AC3 Dolby Digital, 3/2 (L,C,R,l,r) + LFE ch, ~384.00 kbps avg | RUS (iTunes)
Аудио #2: 48 kHz, AC3 Dolby Digital, 3/2 (L,C,R,l,r) + LFE ch, ~448.00 kbps avg | ENG

Дата премьеры (мир): 27 февраля 2019
Дата премьеры (РФ): 7 марта 2019, «WDSSPR»
Цифровой релиз: 31 мая 2019, «Уолт Дисней Компани СНГ»

Релиз:


[+] MediaInfo

Общее
Уникальный идентификатор                 : 162373716227148853458801130022268773124 (0x7A280A4C45D47A761832F97ACC432304)
Полное имя                               : F:OlLanDGroupCaptain.Marvel.2019.HDRip(AVC).OlLanDGroup.mkv
Формат                                   : Matroska
Версия формата                           : Version 4 / Version 2
Размер файла                             : 2,27 Гбайт
Продолжительность                        : 2 ч. 3 м.
Общий поток                              : 2624 Кбит/сек
Название фильма                          : Captain Marvel 2019   #TorpedoUK#
Дата кодирования                         : UTC 2019-05-31 03:12:46
Программа кодирования                    : mkvmerge v29.0.0 ('Like It Or Not') 64-bit
Библиотека кодирования                   : libebml v1.3.6 + libmatroska v1.4.9
Attachments                              : 9.jpg

Видео
Идентификатор                            : 1
Формат                                   : AVC
Формат/Информация                        : Advanced Video Codec
Профиль формата                          : High@L4.1
Параметр CABAC формата                   : Да
Параметр ReFrames формата                : 10 кадров
Идентификатор кодека                     : V_MPEG4/ISO/AVC
Продолжительность                        : 2 ч. 3 м.
Битрейт                                  : 1789 Кбит/сек
Ширина                                   : 1024 пикселя
Высота                                   : 428 пикселей
Соотношение сторон                       : 2,40:1
Режим частоты кадров                     : Постоянный
Частота кадров                           : 23,976 (24000/1001) кадра/сек
Цветовое пространство                    : YUV
Субдискретизация насыщенности            : 4:2:0
Битовая глубина                          : 8 бит
Тип развёртки                            : Прогрессивная
Бит/(Пиксели*Кадры)                      : 0.170
Размер потока                            : 1,55 Гбайт (68%)
Библиотека кодирования                   : x264 core 146 r2538 121396c
Настройки программы                      : cabac=1 / ref=10 / deblock=1:-3:-3 / analyse=0x3:0x113 / me=umh / subme=11 / psy=1 / psy_rd=1.00:0.03 / mixed_ref=1 / me_range=48 / chroma_me=1 / trellis=2 / 8x8dct=1 / cqm=0 / deadzone=21,11 / fast_pskip=1 / chroma_qp_offset=-3 / threads=6 / lookahead_threads=1 / sliced_threads=0 / nr=0 / decimate=1 / interlaced=0 / bluray_compat=0 / constrained_intra=0 / bframes=11 / b_pyramid=2 / b_adapt=2 / b_bias=0 / direct=3 / weightb=1 / open_gop=0 / weightp=2 / keyint=240 / keyint_min=23 / scenecut=40 / intra_refresh=0 / rc_lookahead=40 / rc=2pass / mbtree=0 / bitrate=1789 / ratetol=1.0 / qcomp=0.60 / qpmin=0 / qpmax=69 / qpstep=4 / cplxblur=20.0 / qblur=0.5 / vbv_maxrate=50000 / vbv_bufsize=62500 / nal_hrd=none / filler=0 / ip_ratio=1.40 / pb_ratio=1.30 / aq=1:1.00
Язык                                     : English
Default                                  : Да
Forced                                   : Нет

Аудио #1
Идентификатор                            : 2
Формат                                   : AC-3
Формат/Информация                        : Audio Coding 3
Расширение режима                        : CM (complete main)
Параметр Endianness формата              : Big
Идентификатор кодека                     : A_AC3
Продолжительность                        : 2 ч. 3 м.
Вид битрейта                             : Постоянный
Битрейт                                  : 384 Кбит/сек
Каналы                                   : 6 каналов
Расположение каналов                     : Front: L C R, Side: L R, LFE
Частота                                  : 48,0 КГц
Частота кадров                           : 31,250 кадров/сек (1536 spf)
Битовая глубина                          : 16 бит
Метод сжатия                             : С потерями
Размер потока                            : 340 Мбайт (15%)
Заголовок                                : DUB [iTunes]
Язык                                     : Russian
Default                                  : Да
Forced                                   : Нет

Аудио #2
Идентификатор                            : 3
Формат                                   : AC-3
Формат/Информация                        : Audio Coding 3
Расширение режима                        : CM (complete main)
Параметр Endianness формата              : Big
Идентификатор кодека                     : A_AC3
Продолжительность                        : 2 ч. 3 м.
Вид битрейта                             : Постоянный
Битрейт                                  : 448 Кбит/сек
Каналы                                   : 6 каналов
Расположение каналов                     : Front: L C R, Side: L R, LFE
Частота                                  : 48,0 КГц
Частота кадров                           : 31,250 кадров/сек (1536 spf)
Битовая глубина                          : 16 бит
Метод сжатия                             : С потерями
Размер потока                            : 396 Мбайт (17%)
Заголовок                                : [Original]
Язык                                     : English
Default                                  : Нет
Forced                                   : Нет

Текст #1
Идентификатор                            : 4
Формат                                   : UTF-8
Идентификатор кодека                     : S_TEXT/UTF8
Идентификатор кодека/Информация          : UTF-8 Plain Text
Продолжительность                        : 1 ч. 55 м.
Битрейт                                  : 1 бит/сек
Count of elements                        : 17
Размер потока                            : 937 байт (0%)
Заголовок                                : Forced
Язык                                     : Russian
Default                                  : Да
Forced                                   : Нет

Текст #2
Идентификатор                            : 5
Формат                                   : UTF-8
Идентификатор кодека                     : S_TEXT/UTF8
Идентификатор кодека/Информация          : UTF-8 Plain Text
Продолжительность                        : 2 ч. 2 м.
Битрейт                                  : 65 бит/сек
Count of elements                        : 1314
Размер потока                            : 58,8 Кбайт (0%)
Заголовок                                : Full
Язык                                     : Russian
Default                                  : Нет
Forced                                   : Нет

Текст #3
Идентификатор                            : 6
Формат                                   : UTF-8
Идентификатор кодека                     : S_TEXT/UTF8
Идентификатор кодека/Информация          : UTF-8 Plain Text
Продолжительность                        : 2 ч. 2 м.
Битрейт                                  : 77 бит/сек
Count of elements                        : 1637
Размер потока                            : 69,2 Кбайт (0%)
Заголовок                                : SDH
Язык                                     : Russian
Default                                  : Нет
Forced                                   : Нет

Текст #4
Идентификатор                            : 7
Формат                                   : UTF-8
Идентификатор кодека                     : S_TEXT/UTF8
Идентификатор кодека/Информация          : UTF-8 Plain Text
Продолжительность                        : 1 ч. 53 м.
Битрейт                                  : 47 бит/сек
Count of elements                        : 1422
Размер потока                            : 39,6 Кбайт (0%)
Заголовок                                : Full
Язык                                     : English
Default                                  : Нет
Forced                                   : Нет

Текст #5
Идентификатор                            : 8
Формат                                   : UTF-8
Идентификатор кодека                     : S_TEXT/UTF8
Идентификатор кодека/Информация          : UTF-8 Plain Text
Продолжительность                        : 2 ч. 2 м.
Битрейт                                  : 50 бит/сек
Count of elements                        : 1668
Размер потока                            : 45,1 Кбайт (0%)
Заголовок                                : SDH
Язык                                     : English
Default                                  : Нет
Forced                                   : Нет

Текст #6
Идентификатор                            : 9
Формат                                   : UTF-8
Идентификатор кодека                     : S_TEXT/UTF8
Идентификатор кодека/Информация          : UTF-8 Plain Text
Продолжительность                        : 2 ч. 2 м.
Битрейт                                  : 67 бит/сек
Count of elements                        : 1665
Размер потока                            : 60,9 Кбайт (0%)
Заголовок                                : SDH Colored
Язык                                     : English
Default                                  : Нет
Forced                                   : Нет

Меню
00:00:00.000                             : en:00:00:00.000
00:06:52.120                             : en:00:06:52.120
00:14:07.889                             : en:00:14:07.889
00:23:18.272                             : en:00:23:18.272
00:29:38.026                             : en:00:29:38.026
00:35:07.772                             : en:00:35:07.772
00:44:08.437                             : en:00:44:08.437
00:50:43.499                             : en:00:50:43.499
00:56:18.625                             : en:00:56:18.625
01:03:02.821                             : en:01:03:02.821
01:11:17.398                             : en:01:11:17.398
01:17:49.164                             : en:01:17:49.164
01:27:03.051                             : en:01:27:03.051
01:33:22.430                             : en:01:33:22.430
01:40:51.796                             : en:01:40:51.796
01:46:25.087                             : en:01:46:25.087
01:52:49.888                             : en:01:52:49.888



Скриншоты:
[+] Всего файлов в раздаче - 1:
Captain.Marvel.2019.HDRip(AVC).OlLanDGroup.mkv2.27 GB

Показать еще раздачи по запросу капитан:
2019-06-11 U Капитан Марвел / Captain Marvel (2019) BDRip-AVC от HELLYWOOD | iTunes 2.85 GB ↑ 72 ↓ 41
2019-06-07 U Капитан Марвел / Captain Marvel (2019) BDRip от Twister & ExKinoRay | iTunes 1.46 GB ↑ 80 ↓ 29
2019-06-07 U Капитан Марвел / Captain Marvel (2019) BDRip от Twister & ExKinoRay | iTunes 2.13 GB ↑ 118 ↓ 21
2019-06-06 U Капитан Марвел / Капітан Марвел / Captain Marvel (2019) BDRip 1080p | Line | UKR 8.91 GB ↑ 28 ↓ 8
2019-06-06 U Капитан Марвел / Captain Marvel (2019) BDRip 1080p от qqss44 & MegaPeer | iTunes 7.53 GB ↑ 85 ↓ 43
2019-06-05 U Капитан Марвел / Captain Marvel (2019) BDRip-HEVC 1080p от HANNIBAL | iTunes 6.30 GB ↑ 108 ↓ 28
2019-06-03 U Капитан Марвел / Captain Marvel (2019) UHD BDRip 2160p от селезень | 4K | HDR | iTunes 20.76 GB ↑ 42 ↓ 77

Отзывы
Зарегистрируйтесь чтобы добавить комментарий.
Обратная связь
Copyleft ©