↑↓torrent.by
Поиск
Логин: Регистрация
Пароль: Восстановить пароль

Битва за Землю / Captive State (2019) BDRip 1080р | CВ Студия

Скачать bitva-za-zemlyu-captive-state-2019-bdrip-1080r-cv-studiya.torrent
U Магнитная ссылка Размер: 14.50 GB Раздают: 415 Качают: 352 Добавлен: 2019-06-01 07:14:15
Битва за Землю / Captive State (2019) BDRip 1080р | CВ Студия

Название: Битва за Землю
Оригинальное название: Captive State
Год выхода: 2019
Жанр: Фантастика, триллер
Режиссер: Руперт Уайатт
В ролях: Джон Гудмен, Вера Фармига, Эштон Сандерс, Джонатан Мэйджерс, Кевин Данн, Джеймс Рэнсон, Алан Рак, Мадлен Брюэр, Машин Ган Келли, Кевин Дж. О`Коннор, Бен Дэниелс, Кэйтлин Эвальд, Лоуренс Грим, Гай Ван Сверинген, Елена Флорес

О фильме:
Мы всегда знали, что не одни в этом мире. Мы отправляли сигналы в надежде получить ответ. И нас услышали. За считанные часы пришельцы захватили Землю и установили свое правительство. Сотовая связь и интернет отключены, электронные библиотеки уничтожены. Большой инопланетный брат следит за каждым, его дроны-охотники днем и ночью патрулируют улицы новой Земли. Мы — последние, те, у кого нет имени, невидимые для системы. Сегодня мы вернем нашу планету.

 
Страна: США
Студия: DreamWorks, Amblin Partners, Lightfuse & Gettaway
Продолжительность: 01:49:34
Перевод: Многоголосый закадровый (CВ Студия)
Без рекламы

Файл
Качество: BDRip 1080р | CВ Студия
Видео: AVC/H.264, 1920x804, 17,2 Мbps, 23.976 fps
Звук:
Аудио 1: AC3, 2 ch, 192 Kbps - Русский
Аудио 2: DTS, 6 ch, 1509 Kbps - Английский
Субтитры: Русские, Английские


[+] Mediainfo
Общее
Уникальный идентификатор                 : 232084007634858216789621478486327791889 (0xAE99C1059A3B92483702987EA5519111)
Полное имя                               : Captive State.2019.BDRip.1080p.W.mkv
Формат                                   : Matroska
Версия формата                           : Version 4
Размер файла                             : 14,5 Гбайт
Продолжительность                        : 1 ч. 49 м.
Общий поток                              : 18,9 Мбит/сек
Название фильма                          : Captive State.2019.BDRip.1080p
Дата кодирования                         : UTC 2019-05-31 19:28:54
Программа кодирования                    : mkvmerge v23.0.0 ('The Bride Said No') 64-bit
Библиотека кодирования                   : libebml v1.3.6 + libmatroska v1.4.9

Видео
Идентификатор                            : 1
Формат                                   : AVC
Формат/Информация                        : Advanced Video Codec
Профиль формата                          : High@L4.1
Настройки формата                        : CABAC / 5 Ref Frames
Параметр CABAC формата                   : Да
Параметр RefFrames формата               : 5 кадров
Идентификатор кодека                     : V_MPEG4/ISO/AVC
Продолжительность                        : 1 ч. 49 м.
Битрейт                                  : 17,2 Мбит/сек
Ширина                                   : 1920 пикселей
Высота                                   : 804 пикселя
Соотношение сторон                       : 2,40:1
Режим частоты кадров                     : Постоянный
Частота кадров                           : 23,976 (24000/1001) кадра/сек
Цветовое пространство                    : YUV
Субдискретизация насыщенности            : 4:2:0
Битовая глубина                          : 8 бит
Тип развёртки                            : Прогрессивная
Бит/(Пиксели*Кадры)                      : 0.466
Размер потока                            : 13,2 Гбайт (91%)
Заголовок                                : iFT
Библиотека кодирования                   : x264 core 155 r2867+74 66b5600 t_mod_Custom_2 [8-bit@all X86_64]
Настройки программы                      : cabac=1 / ref=5 / deblock=1:-3:-3 / analyse=0x3:0x113 / me=umh / subme=11 / psy=1 / fade_compensate=0.00 / psy_rd=1.00:0.00 / mixed_ref=1 / me_range=32 / chroma_me=1 / trellis=2 / 8x8dct=1 / cqm=0 / deadzone=21,11 / fast_pskip=0 / chroma_qp_offset=-2 / threads=12 / lookahead_threads=2 / sliced_threads=0 / nr=0 / decimate=0 / interlaced=0 / bluray_compat=0 / constrained_intra=0 / fgo=0 / bframes=8 / b_pyramid=2 / b_adapt=2 / b_bias=0 / direct=3 / weightb=1 / open_gop=0 / weightp=2 / keyint=250 / keyint_min=23 / scenecut=40 / intra_refresh=0 / rc_lookahead=60 / rc=crf / mbtree=0 / crf=15.8000 / qcomp=0.60 / qpmin=0:0:0 / qpmax=69:69:69 / qpstep=4 / vbv_maxrate=62500 / vbv_bufsize=78125 / crf_max=0.0 / nal_hrd=none / filler=0 / ip_ratio=1.30 / pb_ratio=1.20 / aq=3:0.80 / aq-sensitivity=10.00 / aq-factor=1.00:1.00:1.00 / aq2=0 / aq3=0
Язык                                     : English
Default                                  : Да
Forced                                   : Нет
Цветовой диапазон                        : Limited
Основные цвета                           : BT.709
Характеристики трансфера                 : BT.709
Коэффициенты матрицы                     : BT.709

Аудио #1
Идентификатор                            : 2
Формат                                   : AC-3
Формат/Информация                        : Audio Coding 3
Коммерческое название                    : Dolby Digital
Идентификатор кодека                     : A_AC3
Продолжительность                        : 1 ч. 49 м.
Вид битрейта                             : Постоянный
Битрейт                                  : 192 Кбит/сек
Каналы                                   : 2 канала
ChannelLayout                            : L R
Частота                                  : 48,0 КГц
Частота кадров                           : 31,250 кадров/сек (1536 SPF)
Битовая глубина                          : 16 бит
Метод сжатия                             : С потерями
Размер потока                            : 150 Мбайт (1%)
Заголовок                                : MVO | СВ Студия
Язык                                     : Russian
ServiceKind                              : Complete Main
Default                                  : Да
Forced                                   : Нет

Аудио #2
Идентификатор                            : 3
Формат                                   : DTS
Формат/Информация                        : Digital Theater Systems
Идентификатор кодека                     : A_DTS
Продолжительность                        : 1 ч. 49 м.
Вид битрейта                             : Постоянный
Битрейт                                  : 1509 Кбит/сек
Каналы                                   : 6 каналов
ChannelLayout                            : C L R Ls Rs LFE
Частота                                  : 48,0 КГц
Частота кадров                           : 93,750 кадра/сек (512 SPF)
Битовая глубина                          : 24 бит
Метод сжатия                             : С потерями
Размер потока                            : 1,15 Гбайт (8%)
Язык                                     : English
Default                                  : Нет
Forced                                   : Нет

Текст #1
Идентификатор                            : 4
Формат                                   : UTF-8
Идентификатор кодека                     : S_TEXT/UTF8
Идентификатор кодека/Информация          : UTF-8 Plain Text
Продолжительность                        : 1 ч. 44 м.
Битрейт                                  : 60 бит/сек
ElementCount                             : 849
Размер потока                            : 46,0 Кбайт (0%)
Заголовок                                : Full (Focs)
Язык                                     : Russian
Default                                  : Нет
Forced                                   : Нет

Текст #2
Идентификатор                            : 5
Формат                                   : UTF-8
Идентификатор кодека                     : S_TEXT/UTF8
Идентификатор кодека/Информация          : UTF-8 Plain Text
Продолжительность                        : 1 ч. 44 м.
Битрейт                                  : 35 бит/сек
ElementCount                             : 803
Размер потока                            : 27,5 Кбайт (0%)
Заголовок                                : Full
Язык                                     : English
Default                                  : Нет
Forced                                   : Нет

Текст #3
Идентификатор                            : 6
Формат                                   : UTF-8
Идентификатор кодека                     : S_TEXT/UTF8
Идентификатор кодека/Информация          : UTF-8 Plain Text
Продолжительность                        : 1 ч. 45 м.
Битрейт                                  : 46 бит/сек
ElementCount                             : 1123
Размер потока                            : 35,6 Кбайт (0%)
Заголовок                                : SDH
Язык                                     : English
Default                                  : Нет
Forced                                   : Нет

Меню
00:00:00.000                             : en:Chapter 01
00:06:25.385                             : en:Chapter 02
00:12:34.671                             : en:Chapter 03
00:18:46.000                             : en:Chapter 04
00:24:21.377                             : en:Chapter 05
00:26:55.113                             : en:Chapter 06
00:32:44.504                             : en:Chapter 07
00:38:27.597                             : en:Chapter 08
00:43:36.948                             : en:Chapter 09
00:47:17.626                             : en:Chapter 10
00:52:14.465                             : en:Chapter 11
01:00:01.598                             : en:Chapter 12
01:06:42.373                             : en:Chapter 13
01:11:29.577                             : en:Chapter 14
01:15:18.222                             : en:Chapter 15
01:19:40.859                             : en:Chapter 16
01:23:32.049                             : en:Chapter 17
01:31:46.543                             : en:Chapter 18
01:38:12.011                             : en:Chapter 19
01:45:00.711                             : en:Chapter 20  



Скриншоты:
[+] Всего файлов в раздаче - 1:
Captive State.2019.BDRip.1080p.W.mkv14.50 GB

Показать еще раздачи по запросу битва:
2020-01-18 U Бесстрашный: Битва при Мидуэй / Dauntless: The Battle of Midway (2019) BDRip 1080p | A 7.96 GB ↑ 50 ↓ 93
2020-01-18 U Бесстрашный: Битва при Мидуэй / Dauntless: The Battle of Midway (2019) BDRip 720p от ExKinoRay | A 3.43 GB ↑ 46 ↓ 25
2020-01-16 U Бесстрашный: Битва при Мидуэй / Dauntless: The Battle of Midway (2019) BDRip | A 1.46 GB ↑ 524 ↓ 183
2019-12-23 U Битва экстрасенсов [20х01-13 из 14] (2019) SATRip 12.02 GB ↑ 31 ↓ 154
2019-10-13 U Битва (2019) WEB-DLRip-AVC от ExKinoRay | iTunes 746.08 MB ↑ 114 ↓ 7
2019-10-11 U Битва (2019) WEB-DLRip | iTunes 1.46 GB ↑ 213 ↓ 29
2019-09-29 U Битва экстрасенсов [20х01] (2019) WEBRip 720p от Files-x 1К1.56 GB ↑ 269 ↓ 27

Отзывы
Зарегистрируйтесь чтобы добавить комментарий.
Обратная связь
Copyleft ©